<?xml version="1.0" standalone="no"?>
<!DOCTYPE svg PUBLIC "-//W3C//DTD SVG 1.1//EN" "http://www.w3.org/Graphics/SVG/1.1/DTD/svg11.dtd" >
<svg xmlns="http://www.w3.org/2000/svg">
<metadata>
<json>
<![CDATA[
{
	"fontFamily": "rex-icon-font",
	"majorVersion": 1,
	"minorVersion": 6,
	"fontURL": "",
	"copyright": "Rakuten ReX  - Copyright (C) Rakuten Group, Inc - All Rights Reserved",
	"designer": "ReX",
	"license": "",
	"description": "Visual representations of a subject, used in UI for faster recognition\nFont generated by IcoMoon.",
	"designerURL": "https://www.figma.com/file/zgVFGv2orNknqR1pjaVn9m",
	"licenseURL": "",
	"version": "Version 1.6",
	"fontId": "rex-icon-font",
	"psName": "rex-icon-font",
	"subFamily": "Regular",
	"fullName": "rex-icon-font"
}
]]>
</json>
</metadata>
<defs>
<font id="rex-icon-font" horiz-adv-x="1024">
<font-face units-per-em="1024" ascent="960" descent="-64" />
<missing-glyph horiz-adv-x="1024" />
<glyph unicode="&#x20;" horiz-adv-x="512" d="" />
<glyph unicode="&#xe900;" glyph-name="arrow-down" data-tags="arrow-down" d="M896 384l-45.12 45.12-306.88-306.56v773.44h-64v-773.44l-306.88 306.56-45.12-45.12 384-384 384 384z" />
<glyph unicode="&#xe901;" glyph-name="arrow-left" data-tags="arrow-left" d="M448 64l45.12 45.12-306.56 306.88h773.44v64h-773.44l306.56 306.88-45.12 45.12-384-384 384-384z" />
<glyph unicode="&#xe902;" glyph-name="arrow-right" data-tags="arrow-right" d="M576 832l-45.12-45.12 306.56-306.88h-773.44v-64h773.44l-306.56-306.88 45.12-45.12 384 384-384 384z" />
<glyph unicode="&#xe903;" glyph-name="arrow-up" data-tags="arrow-up" d="M128 512l45.12-45.12 306.88 306.56v-773.44h64v773.44l306.88-306.56 45.12 45.12-384 384-384-384z" />
<glyph unicode="&#xe904;" glyph-name="ban-filled" data-tags="ban-filled" d="M512 896c-247.424 0-448-200.576-448-448s200.576-448 448-448c247.424 0 448 200.576 448 448v0c0 247.424-200.576 448-448 448v0zM714.56 200.64l-449.92 449.92c13.641 16.486 28.314 31.159 44.251 44.359l0.549 0.441 449.92-449.92c-13.641-16.486-28.314-31.159-44.251-44.359l-0.549-0.441z" />
<glyph unicode="&#xe905;" glyph-name="ban-outlined" data-tags="ban-outlined" d="M512 896c-247.424 0-448-200.576-448-448s200.576-448 448-448c247.424 0 448 200.576 448 448v0c0 247.424-200.576 448-448 448v0zM512 64c-212.077 0-384 171.923-384 384s171.923 384 384 384c212.077 0 384-171.923 384-384v0c0-212.077-171.923-384-384-384v0zM264.64 650.56l449.92-449.92c16.486 13.641 31.159 28.314 44.359 44.251l0.441 0.549-449.92 449.92c-16.486-13.641-31.159-28.314-44.359-44.251l-0.441-0.549z" />
<glyph unicode="&#xe906;" glyph-name="bar-chart-filled" data-tags="bar-chart-filled" d="M128 832v-736h96v288c0 17.673 14.327 32 32 32v0h96c17.673 0 32-14.327 32-32v0-288h96v448c0 17.673 14.327 32 32 32v0h96c17.673 0 32-14.327 32-32v0-448h96v608c0 17.673 14.327 32 32 32v0h96c17.673 0 32-14.327 32-32v0-608h64v-64h-832c-35.346 0-64 28.654-64 64v0 736z" />
<glyph unicode="&#xe907;" glyph-name="bar-chart-outlined" data-tags="bar-chart-outlined" d="M128 832v-736h64v288c0 35.346 28.654 64 64 64v0h64c35.346 0 64-28.654 64-64v0-288h64v448c0 35.346 28.654 64 64 64v0h64c35.346 0 64-28.654 64-64v0-448h64v608c0 35.346 28.654 64 64 64v0h64c35.346 0 64-28.654 64-64v0-608h64v-64h-832c-35.346 0-64 28.654-64 64v0 736zM832 96v608h-64v-608zM576 544h-64v-448h64zM320 96v288h-64v-288z" />
<glyph unicode="&#xe908;" glyph-name="barcode-filled" data-tags="barcode-filled" d="M128 192h-64v-192h192v64h-128v128zM128 832h128v64h-192v-192h64v128zM896 64h-128v-64h192v192h-64v-128zM768 896v-64h128v-128h64v192h-192zM192 128h640v640h-640zM640 672h64v-448h-64zM512 672h64v-448h-64zM320 672h128v-448h-128z" />
<glyph unicode="&#xe909;" glyph-name="barcode-outlined" data-tags="barcode-outlined" d="M128 192h-64v-192h192v64h-128v128zM64 704h64v128h128v64h-192v-192zM896 64h-128v-64h192v192h-64v-128zM768 896v-64h128v-128h64v192h-192zM320 672h128v-448h-128v448zM512 672h64v-448h-64v448zM640 672h64v-448h-64v448z" />
<glyph unicode="&#xe90a;" glyph-name="browsing-history-filled" data-tags="browsing-history-filled" d="M608 896c-194.363-0.055-351.904-157.63-351.904-352 0-34.186 4.873-67.235 13.964-98.488l-0.62 2.488h242.56v-242.56c28.865-8.531 62.028-13.44 96.338-13.44 194.404 0 352 157.596 352 352s-157.596 352-352 352c-0.119 0-0.238 0-0.356 0h0.018zM832 512h-256v224h64v-160h192zM64 384h96v-64h-96v64zM64 224h96v-64h-96v64zM224 384h224v-64h-224v64zM224 224h224v-64h-224v64zM64 64h96v-64h-96v64zM224 64h224v-64h-224v64z" />
<glyph unicode="&#xe90b;" glyph-name="browsing-history-outlined" data-tags="browsing-history-outlined" d="M544 704v-224h256v64h-192v160h-64zM64 384h96v-64h-96v64zM64 224h96v-64h-96v64zM224 384h224v-64h-224v64zM224 224h224v-64h-224v64zM64 64h96v-64h-96v64zM224 64h224v-64h-224v64zM608 896c-194.363-0.055-351.904-157.63-351.904-352 0-34.186 4.873-67.235 13.964-98.488l-0.62 2.488h67.52c-10.707 28.55-16.921 61.543-16.96 95.983v0.017c0 159.058 128.942 288 288 288s288-128.942 288-288c0-159.058-128.942-288-288-288v0c-34.457 0.039-67.45 6.253-97.949 17.595l1.949-0.635v-67.52c28.865-8.531 62.028-13.44 96.338-13.44 194.404 0 352 157.596 352 352s-157.596 352-352 352c-0.119 0-0.238 0-0.356 0h0.018z" />
<glyph unicode="&#xe90c;" glyph-name="building-filled" data-tags="building-filled" d="M512 160c-44.183 0-80-35.817-80-80v0-80h160v80c0 44.183-35.817 80-80 80v0zM800 896h-576c-35.346 0-64-28.654-64-64v0-768c0-35.346 28.654-64 64-64v0h144v80c0 79.529 64.471 144 144 144s144-64.471 144-144v0-80h144c35.346 0 64 28.654 64 64v0 768c0 35.346-28.654 64-64 64v0zM384 320h-64v96h64zM384 480h-64v96h64zM384 640h-64v96h64zM544 320h-64v96h64zM544 480h-64v96h64zM544 640h-64v96h64zM704 320h-64v96h64zM704 480h-64v96h64zM704 640h-64v96h64z" />
<glyph unicode="&#xe90d;" glyph-name="building-outlined" data-tags="building-outlined" d="M512 224c-70.692 0-128-57.308-128-128v0-96h256v96c0 70.692-57.308 128-128 128v0zM576 64h-128v32c0 35.346 28.654 64 64 64s64-28.654 64-64v0zM320 736h64v-96h-64v96zM480 736h64v-96h-64v96zM640 736h64v-96h-64v96zM320 576h64v-96h-64v96zM480 576h64v-96h-64v96zM640 576h64v-96h-64v96zM320 416h64v-96h-64v96zM480 416h64v-96h-64v96zM640 416h64v-96h-64v96zM800 896h-576c-35.346 0-64-28.654-64-64v0-768c0-35.346 28.654-64 64-64v0h96v64h-96v768h576v-768h-96v-64h96c35.346 0 64 28.654 64 64v0 768c0 35.346-28.654 64-64 64v0z" />
<glyph unicode="&#xe90e;" glyph-name="bus-filled" data-tags="bus-filled" d="M768 896h-512c-70.692 0-128-57.308-128-128v0-576c0-35.346 28.654-64 64-64v0-64c0-35.346 28.654-64 64-64v0h32c35.346 0 64 28.654 64 64v0 64h320v-64c0-35.346 28.654-64 64-64v0h32c35.346 0 64 28.654 64 64v0 64c35.346 0 64 28.654 64 64v0 576c0 70.692-57.308 128-128 128v0zM304 256c-26.51 0-48 21.49-48 48s21.49 48 48 48c26.51 0 48-21.49 48-48v0c0-26.51-21.49-48-48-48v0zM720 256c-26.51 0-48 21.49-48 48s21.49 48 48 48c26.51 0 48-21.49 48-48v0c0-26.51-21.49-48-48-48v0zM832 480h-640v256h640z" />
<glyph unicode="&#xe90f;" glyph-name="bus-outlined" data-tags="bus-outlined" d="M768 896h-512c-70.692 0-128-57.308-128-128v0-576c0-35.346 28.654-64 64-64v0-64c0-35.346 28.654-64 64-64v0h32c35.346 0 64 28.654 64 64v0 64h320v-64c0-35.346 28.654-64 64-64v0h32c35.346 0 64 28.654 64 64v0 64c35.346 0 64 28.654 64 64v0 576c0 70.692-57.308 128-128 128v0zM832 192h-640v224h640zM832 480h-640v192h640zM832 736h-640v32c0 35.346 28.654 64 64 64v0h512c35.346 0 64-28.654 64-64v0zM352 304c0-26.51-21.49-48-48-48s-48 21.49-48 48c0 26.51 21.49 48 48 48s48-21.49 48-48zM768 304c0-26.51-21.49-48-48-48s-48 21.49-48 48c0 26.51 21.49 48 48 48s48-21.49 48-48z" />
<glyph unicode="&#xe910;" glyph-name="calculator-filled" data-tags="calculator-filled" d="M96 160c0-70.692 57.308-128 128-128v0h256v384h-384zM192 273.28l46.72 46.72 49.28-51.2 49.92 51.2 46.080-46.72-50.56-49.28 50.56-49.92-46.080-46.080-49.92 50.56-49.28-50.56-46.72 46.080 51.2 49.92zM96 736v-256h384v384h-256c-70.692 0-128-57.308-128-128v0zM256 768h64v-64h64v-64h-64v-64h-64v64h-64v64h64zM544 32h256c70.692 0 128 57.308 128 128v0 256h-384zM640 320h192v-64h-192zM640 192h192v-64h-192zM800 864h-256v-384h384v256c0 70.692-57.308 128-128 128v0zM832 640h-192v64h192z" />
<glyph unicode="&#xe911;" glyph-name="calculator-outlined" data-tags="calculator-outlined" d="M800 864h-576c-70.692 0-128-57.308-128-128v0-576c0-70.692 57.308-128 128-128v0h576c70.692 0 128 57.308 128 128v0 576c0 70.692-57.308 128-128 128v0zM480 96h-256c-35.346 0-64 28.654-64 64v0 256h320zM480 480h-320v256c0 35.346 28.654 64 64 64v0h256zM864 160c0-35.346-28.654-64-64-64v0h-256v320h320zM864 480h-320v320h256c35.346 0 64-28.654 64-64v0zM224 608h64v-64h64v64h64v64h-64v64h-64v-64h-64v-64zM608 672h192v-64h-192v64zM608 352h192v-64h-192v64zM608 224h192v-64h-192v64zM270.72 160.64l49.6 49.6 49.6-49.6 45.44 45.44-49.6 49.6 49.6 49.6-45.44 45.12-49.6-49.6-49.6 49.6-45.44-45.12 49.92-49.6-49.92-49.6 45.44-45.44z" />
<glyph unicode="&#xe912;" glyph-name="calendar-filled" data-tags="calendar-filled" d="M768 864h-64v-64h-384v64h-64v-64h-96c-35.346 0-64-28.654-64-64v-160h832v160c0 35.346-28.654 64-64 64h-96zM96 96v0c0-35.346 28.654-64 64-64h704c35.346 0 64 28.654 64 64v416h-832v-416zM384 320h-128v64h128zM256 192v64h128v-64zM576 384v-64h-128v64zM448 256h128v-64h-128zM768 320h-128v64h128zM640 192v64h128v-64z" />
<glyph unicode="&#xe913;" glyph-name="calendar-outlined" data-tags="calendar-outlined" d="M768 800h96c35.346 0 64-28.654 64-64v0-224h-832v224c0 35.346 28.654 64 64 64v0h96v64h64v-64h384v64h64zM160 576h704v160h-96v-96h-64v96h-384v-96h-64v96h-96zM160 96h704v352h64v-352c0-35.346-28.654-64-64-64v0h-704c-35.346 0-64 28.654-64 64v0 352h64zM384 384v-64h-128v64zM384 192v64h-128v-64zM448 384h128v-64h-128zM576 256h-128v-64h128zM768 384v-64h-128v64zM768 192v64h-128v-64z" />
<glyph unicode="&#xe914;" glyph-name="campaign-filled" data-tags="campaign-filled" d="M422.72 781.76c-11.24 11.269-26.783 18.24-43.955 18.24-0.072 0-0.144 0-0.217 0h0.011c-26.671-0.549-49.288-17.331-58.411-40.844l-0.149-0.436-175.36-470.72-60.48-59.2c-12.425-12.637-20.096-29.983-20.096-49.12s7.671-36.483 20.105-49.13l110.070-110.070c12.334-12.641 29.538-20.481 48.574-20.481 0.136 0 0.272 0 0.407 0.001h-0.021c19.156 0.005 36.482 7.837 48.953 20.473l0.007 0.007 59.84 60.16 36.16 13.44 10.88-32c9.024-23.6 26.379-42.306 48.384-52.871l0.576-0.249c11.72-5.663 25.487-8.973 40.027-8.973 0.553 0 1.105 0.005 1.656 0.014l-0.083-0.001c11.536 0.135 22.515 2.354 32.632 6.297l-0.632-0.217 101.76 37.12c36.943 13.923 62.746 48.977 62.746 90.056 0 11.778-2.121 23.061-6.002 33.487l0.216-0.664-11.2 32 152.32 56c23.884 9.647 40.43 32.642 40.43 59.502 0 16.989-6.62 32.432-17.42 43.89l0.030-0.032zM602.56 103.36l-101.76-37.44c-3.639-1.56-7.874-2.467-12.32-2.467s-8.681 0.907-12.529 2.546l0.209-0.079c-7.608 3.85-13.468 10.229-16.559 18.009l-0.081 0.231-10.88 32 161.6 59.52 11.2-32c1.103-3.103 1.741-6.683 1.741-10.411 0-13.583-8.463-25.189-20.403-29.834l-0.218-0.075zM576 896h64v-160h-64v160zM800 576h160v-64h-160v64zM713.254 694.525l127.845 127.845 45.255-45.255-127.845-127.845-45.255 45.255z" />
<glyph unicode="&#xe915;" glyph-name="campaign-outlined" data-tags="campaign-outlined" d="M422.72 781.76c-11.24 11.269-26.783 18.24-43.955 18.24-0.072 0-0.144 0-0.217 0h0.011c-26.671-0.549-49.288-17.331-58.411-40.844l-0.149-0.436-175.36-470.72-60.48-59.2c-12.425-12.637-20.096-29.983-20.096-49.12s7.671-36.483 20.105-49.13l110.070-110.070c12.334-12.641 29.538-20.481 48.574-20.481 0.136 0 0.272 0 0.407 0.001h-0.021c19.156 0.005 36.482 7.837 48.953 20.473l0.007 0.007 59.84 60.16 36.16 13.44 10.88-32c9.024-23.6 26.379-42.306 48.384-52.871l0.576-0.249c11.72-5.663 25.487-8.973 40.027-8.973 0.553 0 1.105 0.005 1.656 0.014l-0.083-0.001c11.519 0.173 22.495 2.269 32.694 5.981l-0.694-0.221 101.76 37.44c36.889 13.951 62.644 48.977 62.644 90.019 0 11.673-2.083 22.859-5.898 33.207l0.215-0.665-11.2 32 152.32 56c23.884 9.647 40.43 32.642 40.43 59.502 0 16.989-6.62 32.432-17.42 43.89l0.030-0.032zM246.72 65.92c-0.516-0.247-1.121-0.391-1.76-0.391s-1.244 0.144-1.785 0.401l0.025-0.011c-0.557-0.296-1.218-0.47-1.92-0.47s-1.363 0.174-1.943 0.48l0.023-0.011-109.76 110.080c-1.053 0.886-1.718 2.206-1.718 3.68s0.665 2.794 1.711 3.674l0.007 0.006 37.44 37.76 117.44-117.76zM602.56 103.36l-101.76-37.44c-3.639-1.56-7.874-2.467-12.32-2.467s-8.681 0.907-12.529 2.546l0.209-0.079c-7.608 3.85-13.468 10.229-16.559 18.009l-0.081 0.231-11.2 32 161.92 59.52 11.2-32c1.103-3.103 1.741-6.683 1.741-10.411 0-13.583-8.463-25.189-20.403-29.834l-0.218-0.075zM335.36 143.040l-128 128 172.8 462.080 419.84-419.84zM576 896h64v-160h-64v160zM800 576h160v-64h-160v64zM713.254 694.525l127.845 127.845 45.255-45.255-127.845-127.845-45.255 45.255z" />
<glyph unicode="&#xe916;" glyph-name="car-filled" data-tags="car-filled" d="M949.12 464l-34.24 51.52c-7.129 10.687-17.335 18.826-29.345 23.227l-0.415 0.133-43.52 240.64c-5.643 30.053-31.68 52.489-62.956 52.489-0.367 0-0.733-0.003-1.099-0.009l0.055 0.001h-532.16c-0.31 0.005-0.677 0.009-1.044 0.009-31.277 0-57.313-22.436-62.894-52.091l-0.062-0.397-42.56-240.64c-12.425-4.534-22.631-12.673-29.623-23.142l-0.137-0.218-34.24-51.52c-6.782-9.97-10.842-22.267-10.88-35.51v-236.49c0-35.346 28.654-64 64-64v0-64c0-35.346 28.654-64 64-64v0h32c35.346 0 64 28.654 64 64v0 64h448v-64c0-35.346 28.654-64 64-64v0h32c35.346 0 64 28.654 64 64v0 64c35.346 0 64 28.654 64 64v0 236.48c-0.038 13.253-4.098 25.55-11.023 35.743l0.143-0.223zM240 288c-26.51 0-48 21.49-48 48s21.49 48 48 48c26.51 0 48-21.49 48-48v0c0-26.51-21.49-48-48-48v0zM608 192h-192v96h192zM204.8 544l40.64 224h533.12l40.64-224zM784 288c-26.51 0-48 21.49-48 48s21.49 48 48 48c26.51 0 48-21.49 48-48v0c0-26.51-21.49-48-48-48v0z" />
<glyph unicode="&#xe917;" glyph-name="car-outlined" data-tags="car-outlined" d="M288 336c0-26.51-21.49-48-48-48s-48 21.49-48 48c0 26.51 21.49 48 48 48s48-21.49 48-48zM832 336c0-26.51-21.49-48-48-48s-48 21.49-48 48c0 26.51 21.49 48 48 48s48-21.49 48-48zM949.12 464l-34.24 51.52c-7.129 10.687-17.335 18.826-29.345 23.227l-0.415 0.133-43.52 240.64c-5.643 30.053-31.68 52.489-62.956 52.489-0.367 0-0.733-0.003-1.099-0.009l0.055 0.001h-532.16c-0.31 0.005-0.677 0.009-1.044 0.009-31.277 0-57.313-22.436-62.894-52.091l-0.062-0.397-42.56-240.64c-12.425-4.534-22.631-12.673-29.623-23.142l-0.137-0.218-34.24-51.52c-6.782-9.97-10.842-22.267-10.88-35.51v-236.49c0-35.346 28.654-64 64-64v0-64c0-35.346 28.654-64 64-64v0h32c35.346 0 64 28.654 64 64v0 64h448v-64c0-35.346 28.654-64 64-64v0h32c35.346 0 64 28.654 64 64v0 64c35.346 0 64 28.654 64 64v0 236.48c-0.038 13.253-4.098 25.55-11.023 35.743l0.143-0.223zM245.44 768h533.12l40.64-224h-614.4zM576 192h-128v64h128zM896 192h-256v128h-256v-128h-256v236.48l34.24 51.52h699.52l34.24-51.52z" />
<glyph unicode="&#xe918;" glyph-name="change-order" data-tags="change-order" d="M735.68 832l-223.68-223.68 43.84-43.84 148.16 148.48v-648.96h64v648l147.52-147.52 43.84 43.84-223.68 223.68zM319.36 183.040v648.96h-64v-648l-147.52 147.52-43.84-43.84 223.68-223.68 223.68 223.68-43.84 43.84-148.16-148.48z" />
<glyph unicode="&#xe919;" glyph-name="chat-filled" data-tags="chat-filled" d="M640 704c16.662-0.168 32.878-1.209 48.84-3.082l-2.12 0.202c-49.969 115.576-162.996 194.984-294.569 194.984-2.866 0-5.723-0.038-8.571-0.113l0.42 0.009c-176.64 0-320-128-320-288 0.194-61.246 20.989-117.598 55.814-162.529l-0.454 0.609-55.36-190.080 192 77.44c0 6.080 0 12.16 0 18.56 0 194.24 172.16 352 384 352zM960 352c0 160-143.36 288-320 288s-320-128-320-288 143.36-288 320-288c0.15 0 0.328 0 0.507 0 40.387 0 79.16 6.915 115.198 19.626l-2.424-0.745 206.72-82.88-55.36 190.080c34.37 44.322 55.165 100.673 55.36 161.875v0.045zM544 320h-64v64h64zM672 320h-64v64h64zM800 320h-64v64h64z" />
<glyph unicode="&#xe91a;" glyph-name="chat-outlined" data-tags="chat-outlined" d="M162.24 364.48l27.84 94.4-19.52 25.6c-26.339 33.777-42.315 76.759-42.56 123.464v0.056c0 123.52 114.88 224 256 224 2.134 0.063 4.646 0.098 7.165 0.098 95.087 0 178.288-50.887 223.857-126.914l0.658-1.185c8 0 16 0 24.32 0 16.662-0.168 32.878-1.209 48.84-3.082l-2.12 0.202c-49.969 115.576-162.996 194.984-294.569 194.984-2.866 0-5.723-0.038-8.571-0.113l0.42 0.009c-176.64 0-320-128-320-288 0.194-61.246 20.989-117.598 55.814-162.529l-0.454 0.609-55.36-190.080 192 77.44c0 6.080 0 12.16 0 18.56 0.212 18.468 1.833 36.391 4.761 53.871l-0.281-2.031zM608 384h64v-64h-64v64zM480 384h64v-64h-64v64zM960 352c0 160-143.36 288-320 288s-320-128-320-288 143.36-288 320-288c0.15 0 0.328 0 0.507 0 40.387 0 79.16 6.915 115.198 19.626l-2.424-0.745 206.72-82.88-55.36 190.080c34.37 44.322 55.165 100.673 55.36 161.875v0.045zM843.2 172.16l18.56-64-84.8 33.92-22.080 8.64-22.4-7.68c-27.304-9.534-58.78-15.042-91.542-15.042-0.33 0-0.66 0.001-0.989 0.002h0.051c-141.12 0-256 100.48-256 224s114.88 224 256 224 256-100.48 256-224c-0.245-46.761-16.221-89.743-42.901-123.974l0.341 0.454-19.52-25.6zM736 384h64v-64h-64v64z" />
<glyph unicode="&#xe91b;" glyph-name="check" data-tags="check" d="M960 736l-45.12 45.12-562.88-562.56-242.88 242.56-45.12-45.12 288-288 608 608z" />
<glyph unicode="&#xe91c;" glyph-name="chevron-down" data-tags="chevron-down" d="M928 633.28l-45.12 45.44-370.88-370.88-370.88 370.88-45.12-45.44 416-416 416 416z" />
<glyph unicode="&#xe91d;" glyph-name="chevron-left" data-tags="chevron-left" d="M697.28 32l45.44 45.12-370.88 370.88 370.88 370.88-45.44 45.12-416-416 416-416z" />
<glyph unicode="&#xe91e;" glyph-name="chevron-right" data-tags="chevron-right" d="M326.72 864l-45.44-45.12 370.88-370.88-370.88-370.88 45.44-45.12 416 416-416 416z" />
<glyph unicode="&#xe91f;" glyph-name="chevron-up" data-tags="chevron-up" d="M96 262.72l45.12-45.44 370.88 370.88 370.88-370.88 45.12 45.44-416 416-416-416z" />
<glyph unicode="&#xe920;" glyph-name="circle-arrow-down" data-tags="circle-arrow-down" d="M898.56 448c0 212.077-171.923 384-384 384s-384-171.923-384-384c0-212.077 171.923-384 384-384v0c212.077 0 384 171.923 384 384v0zM343.36 515.2l171.2-154.24 170.88 154.24 21.12-18.88-192-173.12-192 173.12z" />
<glyph unicode="&#xe921;" glyph-name="circle-arrow-left" data-tags="circle-arrow-left" d="M514.56 64c212.077 0 384 171.923 384 384s-171.923 384-384 384c-212.077 0-384-171.923-384-384v0c0-212.077 171.923-384 384-384v0zM581.76 619.2l-154.56-171.2 154.56-171.2-18.88-20.8-173.12 192 173.12 192z" />
<glyph unicode="&#xe922;" glyph-name="circle-arrow-right" data-tags="circle-arrow-right" d="M521.6 832c-212.077 0-384-171.923-384-384s171.923-384 384-384c212.077 0 384 171.923 384 384v0c0 212.077-171.923 384-384 384v0zM454.4 277.76l153.6 170.24-153.6 172.16 18.88 20.8 173.12-192-173.12-192z" />
<glyph unicode="&#xe923;" glyph-name="circle-arrow-up" data-tags="circle-arrow-up" d="M130.56 441.28c0-212.077 171.923-384 384-384s384 171.923 384 384c0 212.077-171.923 384-384 384v0c-212.077 0-384-171.923-384-384v0zM685.44 374.080l-170.88 154.24-171.2-154.24-20.8 18.88 192 173.12 192-173.12z" />
<glyph unicode="&#xe924;" glyph-name="close" data-tags="close" d="M864 753.6l-46.4 46.4-305.6-305.6-305.6 305.6-46.4-46.4 305.6-305.6-305.6-305.6 46.4-46.4 305.6 305.6 305.6-305.6 46.4 46.4-305.6 305.6 305.6 305.6z" />
<glyph unicode="&#xe925;" glyph-name="close-account-filled" data-tags="close-account-filled" d="M768 384c-106.039 0-192-85.961-192-192s85.961-192 192-192c106.039 0 192 85.961 192 192v0c0 106.039-85.961 192-192 192v0zM768 64c-59.151 0.198-108.837 40.488-123.319 95.107l-0.201 0.893h247.040c-14.683-55.512-64.369-95.802-123.497-96h-0.023zM644.48 224c15.264 54.851 64.77 94.432 123.52 94.432s108.256-39.581 123.306-93.532l0.214-0.9zM512 192c0.12 91.113 47.821 171.060 119.584 216.338l1.056 0.622c-30.080 20.48-61.12 38.72-83.84 51.52-9.638 5.635-16.010 15.932-16.010 27.719 0 8.471 3.292 16.174 8.666 21.898l-0.016-0.017c44.48 47.36 66.56 87.36 66.56 193.92 0.106 2.342 0.167 5.087 0.167 7.847 0 101.797-82.523 184.32-184.32 184.32-2.76 0-5.505-0.061-8.236-0.181l0.389 0.014c-2.342 0.106-5.087 0.167-7.847 0.167-101.797 0-184.32-82.523-184.32-184.32 0-2.76 0.061-5.505 0.181-8.236l-0.014 0.389c0-106.56 22.080-146.56 66.56-193.92 5.358-5.707 8.65-13.41 8.65-21.881 0-11.786-6.372-22.084-15.859-27.637l-0.151-0.082c-58.988-31.794-109.898-67.802-155.936-109.129l0.736 0.649c-53.76-53.76-62.4-174.72-64-288 0-35.346 28.654-64 64-64v0h471.36c-53.521 47.034-87.173 115.568-87.36 191.967v0.033z" />
<glyph unicode="&#xe926;" glyph-name="close-account-outlined" data-tags="close-account-outlined" d="M768 384c-106.039 0-192-85.961-192-192s85.961-192 192-192c106.039 0 192 85.961 192 192v0c0 106.039-85.961 192-192 192v0zM768 64c-59.151 0.198-108.837 40.488-123.319 95.107l-0.201 0.893h247.040c-14.683-55.512-64.369-95.802-123.497-96h-0.023zM644.48 224c15.264 54.851 64.77 94.432 123.52 94.432s108.256-39.581 123.306-93.532l0.214-0.9zM128 64c0 49.92 2.56 200.96 44.8 243.52 41.159 36.943 87.594 69.387 137.699 95.802l3.741 1.798c29.258 16.821 48.643 47.9 48.643 83.506 0 25.4-9.864 48.496-25.971 65.666l0.048-0.052c-31.040 32.96-48.96 56.64-48.96 149.76-0.167 2.376-0.262 5.148-0.262 7.942 0 66.451 53.869 120.32 120.32 120.32 2.795 0 5.567-0.095 8.314-0.283l-0.371 0.020c2.376 0.167 5.148 0.262 7.942 0.262 66.451 0 120.32-53.869 120.32-120.32 0-2.795-0.095-5.567-0.283-8.314l0.020 0.371c0-93.12-17.92-116.8-49.28-150.4-16.058-17.118-25.923-40.214-25.923-65.614 0-35.607 19.385-66.686 48.177-83.259l0.466-0.247c23.36-12.8 44.48-25.6 64-38.080 15.073 16.065 31.98 30.123 50.464 41.929l1.056 0.631c-30.080 20.48-61.12 38.72-83.84 51.52-9.638 5.635-16.010 15.932-16.010 27.719 0 8.471 3.292 16.174 8.666 21.898l-0.016-0.017c44.16 47.36 66.24 87.36 66.24 193.92 0.106 2.342 0.167 5.087 0.167 7.847 0 101.797-82.523 184.32-184.32 184.32-2.76 0-5.505-0.061-8.236-0.181l0.389 0.014c-2.342 0.106-5.087 0.167-7.847 0.167-101.797 0-184.32-82.523-184.32-184.32 0-2.76 0.061-5.505 0.181-8.236l-0.014 0.389c0-106.56 22.080-146.56 66.56-193.92 5.358-5.707 8.65-13.41 8.65-21.881 0-11.786-6.372-22.084-15.859-27.637l-0.151-0.082c-58.988-31.794-109.898-67.802-155.936-109.129l0.736 0.649c-53.76-53.76-62.4-174.72-64-288 0-35.346 28.654-64 64-64v0h471.36c-20.71 18.080-38.172 39.212-51.845 62.812l-0.635 1.188z" />
<glyph unicode="&#xe927;" glyph-name="cloud-filled" data-tags="cloud-filled" d="M889.28 404.8c4.245 13.603 6.69 29.244 6.69 45.455 0 87.128-70.632 157.76-157.76 157.76-0.777 0-1.553-0.006-2.328-0.017l0.117 0.001c-17.115-0.202-33.481-3.115-48.784-8.327l1.104 0.327c-37.004 98.759-130.601 167.783-240.32 167.783-141.309 0-255.876-114.492-256-255.771v-0.011c0-7.36 0-14.4 0-21.44-76.496-36.731-128.369-113.588-128.369-202.56 0-123.712 100.288-224 224-224 0.13 0 0.259 0 0.389 0h479.98c106.014 0.032 191.943 85.981 191.943 192 0 59.859-27.393 113.32-70.326 148.532l-0.337 0.268z" />
<glyph unicode="&#xe928;" glyph-name="cloud-outlined" data-tags="cloud-outlined" d="M448 704c82.312-0.075 152.493-51.935 179.725-124.754l0.435-1.326 20.8-57.28 58.56 18.24c8.456 3.043 18.216 4.9 28.38 5.118l0.1 0.002c0.589 0.013 1.284 0.021 1.98 0.021 51.959 0 94.080-42.121 94.080-94.080 0-9.945-1.543-19.529-4.403-28.527l0.183 0.666-11.52-40.32 32-26.56c28.848-23.653 47.111-59.295 47.111-99.201 0-70.492-56.983-127.675-127.4-127.999h-480.031c-88.123 0.32-159.437 71.831-159.437 159.999 0 63.515 37.009 118.386 90.639 144.225l0.958 0.416 40.32 18.88-4.48 44.48c-0.157 2.392-0.246 5.185-0.246 8s0.089 5.608 0.265 8.378l-0.019-0.378c0 106.039 85.961 192 192 192v0zM448 768c-141.385 0-256-114.615-256-256v0c0-7.36 0-14.4 0-21.44-76.496-36.731-128.369-113.588-128.369-202.56 0-123.712 100.288-224 224-224 0.13 0 0.259 0 0.389 0h479.98c106.014 0.032 191.943 85.981 191.943 192 0 59.859-27.393 113.32-70.326 148.532l-0.337 0.268c4.245 13.603 6.69 29.244 6.69 45.455 0 87.128-70.632 157.76-157.76 157.76-0.777 0-1.553-0.006-2.328-0.017l0.117 0.001c-17.115-0.202-33.481-3.115-48.784-8.327l1.104 0.327c-36.935 98.849-130.552 167.965-240.316 168h-0.004z" />
<glyph unicode="&#xe929;" glyph-name="comment-double-filled" data-tags="comment-double-filled" d="M896 896h-576c-35.346 0-64-28.654-64-64v0-64h448c70.692 0 128-57.308 128-128v0-320h64c35.346 0 64 28.654 64 64v0 448c0 35.346-28.654 64-64 64v0zM704 704h-576c-35.346 0-64-28.654-64-64v0-448c0-35.346 28.654-64 64-64v0h160l128-128 128 128h160c35.346 0 64 28.654 64 64v0 448c0 35.346-28.654 64-64 64v0zM416 288h-192v64h192zM608 448h-384v64h384z" />
<glyph unicode="&#xe92a;" glyph-name="comment-double-outlined" data-tags="comment-double-outlined" d="M704 704h-576c-35.346 0-64-28.654-64-64v0-448c0-35.346 28.654-64 64-64v0h160l128-128 128 128h160c35.346 0 64 28.654 64 64v0 448c0 35.346-28.654 64-64 64v0zM704 192h-186.56l-18.56-18.88-82.88-82.56-82.88 82.56-18.56 18.88h-186.56v448h576zM224 512h384v-64h-384v64zM224 352h192v-64h-192v64zM896 896h-576c-35.346 0-64-28.654-64-64v0-64h64v64h576v-448h-64v-64h64c35.346 0 64 28.654 64 64v0 448c0 35.346-28.654 64-64 64v0z" />
<glyph unicode="&#xe92b;" glyph-name="comment-filled" data-tags="comment-filled" d="M864 864h-704c-35.346 0-64-28.654-64-64v0-576c0-35.346 28.654-64 64-64v0h224l128-128 128 128h224c35.346 0 64 28.654 64 64v0 576c0 35.346-28.654 64-64 64v0zM512 352h-224v64h224zM736 480h-448v64h448zM736 608h-448v64h448z" />
<glyph unicode="&#xe92c;" glyph-name="comment-outlined" data-tags="comment-outlined" d="M864 864h-704c-35.346 0-64-28.654-64-64v0-576c0-35.346 28.654-64 64-64v0h224l128-128 128 128h224c35.346 0 64 28.654 64 64v0 576c0 35.346-28.654 64-64 64v0zM864 224h-250.56l-18.56-18.88-82.88-82.56-82.88 82.56-18.56 18.88h-250.56v576h704zM288 672h448v-64h-448v64zM288 544h448v-64h-448v64zM288 416h224v-64h-224v64z" />
<glyph unicode="&#xe92d;" glyph-name="compare-filled" data-tags="compare-filled" d="M336 657.28l26.88-77.76h-53.76zM723.2 635.52c0 0.003 0 0.007 0 0.011 0 10.25-8.31 18.56-18.56 18.56-0.225 0-0.449-0.004-0.672-0.012l0.032 0.001h-64v-37.12h64c0.191-0.007 0.415-0.011 0.64-0.011 10.25 0 18.56 8.31 18.56 18.56 0 0.004 0 0.008 0 0.012v-0.001zM734.080 548.48c0 10.25-8.31 18.56-18.56 18.56v0h-73.6v-37.12h73.6c10.25 0 18.56 8.31 18.56 18.56v0zM928 736v-576c0-70.692-57.308-128-128-128v0h-576c-70.692 0-128 57.308-128 128v0 576c0 70.692 57.308 128 128 128v0h576c70.692 0 128-57.308 128-128v0zM592 480h126.080c1.359-0.107 2.943-0.168 4.541-0.168 33.932 0 61.44 27.508 61.44 61.44 0 0.959-0.022 1.914-0.066 2.862l0.005-0.134c0.010 0.364 0.015 0.793 0.015 1.223 0 25.595-19.387 46.662-44.278 49.318l-0.217 0.019c19.608 6.090 33.6 24.070 33.6 45.317 0 0.043 0 0.086 0 0.13v-0.007c0 0.009 0 0.019 0 0.029 0 35.346-28.654 64-64 64-0.675 0-1.348-0.010-2.018-0.031l0.098 0.002h-115.2zM448 256h-224v-64h224zM448 384h-224v-64h224zM448 480l-77.12 224h-69.76l-77.12-224h50.88l17.28 49.92h87.68l17.28-49.92zM800 256h-224v-64h224zM800 384h-224v-64h224z" />
<glyph unicode="&#xe92e;" glyph-name="compare-outlined" data-tags="compare-outlined" d="M352 704h-50.88l-77.12-224h50.88l17.28 49.92h87.68l17.28-49.92h50.88l-77.12 224zM309.12 579.52l26.88 77.76 26.88-77.76zM800 864h-576c-70.692 0-128-57.308-128-128v0-576c0-70.692 57.308-128 128-128v0h576c70.692 0 128 57.308 128 128v0 576c0 70.692-57.308 128-128 128v0zM864 160c0-35.346-28.654-64-64-64v0h-576c-35.346 0-64 28.654-64 64v0 576c0 35.346 28.654 64 64 64v0h576c35.346 0 64-28.654 64-64v0zM784 544c0.010 0.364 0.015 0.793 0.015 1.223 0 25.595-19.387 46.662-44.278 49.318l-0.217 0.019c19.608 6.090 33.6 24.070 33.6 45.317 0 0.043 0 0.086 0 0.13v-0.007c0 0.009 0 0.019 0 0.029 0 35.346-28.654 64-64 64-0.675 0-1.348-0.010-2.018-0.031l0.098 0.002h-115.2v-224h126.080c1.359-0.107 2.943-0.168 4.541-0.168 33.932 0 61.44 27.508 61.44 61.44 0 0.959-0.022 1.914-0.066 2.862l0.005-0.134zM641.92 654.080h64c10.25 0 18.56-8.31 18.56-18.56s-8.31-18.56-18.56-18.56h-64zM641.92 529.92v37.12h73.6c10.25 0 18.56-8.31 18.56-18.56s-8.31-18.56-18.56-18.56v0zM224 384h224v-64h-224v64zM224 256h224v-64h-224v64zM576 384h224v-64h-224v64zM576 256h224v-64h-224v64z" />
<glyph unicode="&#xe92f;" glyph-name="copy-filled" data-tags="copy-filled" d="M448 864h416c35.346 0 64-28.654 64-64v0-512c0-35.346-28.654-64-64-64v0h-160v416c0 53.019-42.981 96-96 96v0h-224v64c0 35.346 28.654 64 64 64v0zM160 672c-35.346 0-64-28.654-64-64v0-512c0-35.346 28.654-64 64-64v0h416c35.346 0 64 28.654 64 64v0 512c0 35.346-28.654 64-64 64v0z" />
<glyph unicode="&#xe930;" glyph-name="copy-outlined" data-tags="copy-outlined" d="M864 864v0c35.346 0 64-28.654 64-64v-512c0-35.346-28.654-64-64-64h-160v64h160v512h-416v-64h-64v64c0 35.346 28.654 64 64 64zM160 96h416v512h-416zM96 608c0 35.346 28.654 64 64 64v0h416c35.346 0 64-28.654 64-64v0-512c0-35.346-28.654-64-64-64v0h-416c-35.346 0-64 28.654-64 64v0z" />
<glyph unicode="&#xe931;" glyph-name="coupon-filled" data-tags="coupon-filled" d="M960 544v224c0 35.346-28.654 64-64 64v0h-768c-35.346 0-64-28.654-64-64v0-224c53.019 0 96-42.981 96-96s-42.981-96-96-96v0-224c0-35.346 28.654-64 64-64v0h768c35.346 0 64 28.654 64 64v0 224c-53.019 0-96 42.981-96 96s42.981 96 96 96v0zM416 384h-64v128h64zM416 576h-64v128h64zM416 192h-64v128h64z" />
<glyph unicode="&#xe932;" glyph-name="coupon-outlined" data-tags="coupon-outlined" d="M960 512v256c0 35.346-28.654 64-64 64v0h-768c-35.346 0-64-28.654-64-64v0-256c35.346 0 64-28.654 64-64s-28.654-64-64-64v0-256c0-35.346 28.654-64 64-64v0h768c35.346 0 64 28.654 64 64v0 256c-35.346 0-64 28.654-64 64s28.654 64 64 64v0zM896 558.72c-38.403-22.573-63.773-63.684-63.773-110.72s25.371-88.147 63.174-110.394l0.6-0.326v-209.28h-768v209.28c38.403 22.573 63.773 63.684 63.773 110.72s-25.371 88.147-63.174 110.394l-0.6 0.326v209.28h768zM320 512h64v-128h-64v128zM320 704h64v-128h-64v128zM320 320h64v-128h-64v128z" />
<glyph unicode="&#xe933;" glyph-name="credit-card-filled" data-tags="credit-card-filled" d="M64 160c0-35.346 28.654-64 64-64v0h768c35.346 0 64 28.654 64 64v0 352h-896zM400 320c26.51 0 48-21.49 48-48s-21.49-48-48-48c-26.51 0-48 21.49-48 48v0c0 26.51 21.49 48 48 48v0zM240 320c26.51 0 48-21.49 48-48s-21.49-48-48-48c-26.51 0-48 21.49-48 48v0c0 26.51 21.49 48 48 48v0zM896 800h-768c-35.346 0-64-28.654-64-64v0-96h896v96c0 35.346-28.654 64-64 64v0z" />
<glyph unicode="&#xe934;" glyph-name="credit-card-outlined" data-tags="credit-card-outlined" d="M288 272c0-26.51-21.49-48-48-48s-48 21.49-48 48c0 26.51 21.49 48 48 48s48-21.49 48-48zM448 272c0-26.51-21.49-48-48-48s-48 21.49-48 48c0 26.51 21.49 48 48 48s48-21.49 48-48zM896 800h-768c-35.346 0-64-28.654-64-64v0-224h896v224c0 35.346-28.654 64-64 64v0zM896 640h-768v96h768zM896 160h-768v288h-64v-288c0-35.346 28.654-64 64-64v0h768c35.346 0 64 28.654 64 64v0 288h-64z" />
<glyph unicode="&#xe935;" glyph-name="cross-use" data-tags="cross-use" d="M728 616c-47.201-0.32-89.713-20.131-119.939-51.776l-0.061-0.064-47.36 43.84c42.289 44.015 101.645 71.36 167.388 71.36 128.13 0 232-103.87 232-232s-103.87-232-232-232c-0.010 0-0.020 0-0.030 0h0.002c-130.24 0-212.48 96-246.72 224-32 99.52-96 176.96-185.28 176.96-0.315 0.002-0.688 0.003-1.060 0.003-92.784 0-168-75.216-168-168s75.216-168 168-168c47.53 0 90.45 19.738 121.010 51.464l0.050 0.053 47.36-43.84c-42.339-44.394-101.945-71.999-167.999-71.999-128.13 0-232 103.87-232 232s103.87 232 232 232c0.225 0 0.449 0 0.674-0.001h-0.035c132.16 0 213.12-114.24 246.72-224v0 0c29.76-112.32 96-176.32 184.96-176.32 92.784 0 168 75.216 168 168s-75.216 168-168 168v0z" />
<glyph unicode="&#xe936;" glyph-name="currency-filled" data-tags="currency-filled" d="M320 530.88c10.812 17.001 21.879 31.731 33.966 45.547l-0.366-0.427c-43.52 11.52-102.080 32-102.080 96 3.429 33.357 25.11 60.918 54.768 72.752l0.592 0.208c3.513 1.694 7.856 3.429 12.321 4.893l0.799 0.227v49.92h64v-47.36c34.363-7.837 64.337-23.237 89.258-44.407l-0.298 0.247-40.96-48c-36.16 29.12-71.68 39.68-96 29.12-9.337-3.281-16.559-10.503-19.771-19.616l-0.069-0.224c0-16.32 12.16-23.68 64-37.12 8.96-2.56 18.56-5.12 28.16-8.32 59.184 46.101 133.48 75.401 214.415 79.641l0.945 0.039c-40.797 112.692-146.887 191.766-271.446 191.766-159.058 0-288-128.942-288-288 0-124.559 79.074-230.65 189.762-270.811l2.004-0.635c2.224 50.897 13.78 98.535 32.991 142.036l-0.991-2.516c-24.45 10.657-45.532 23.632-64.491 39.109l0.491-0.389 40.32 48.32c16.017-12.713 34.395-23.481 54.193-31.47l1.487-0.53zM640 640c-176.731 0-320-143.269-320-320s143.269-320 320-320c176.731 0 320 143.269 320 320v0c0 176.731-143.269 320-320 320v0zM800 368v-48h-122.56l-5.44-8.64v-39.36h128v-48h-128v-96h-64v96h-128v48h128v39.36l-5.44 8.64h-122.56v48h91.84l-91.84 144h73.92l86.080-132.8 86.080 132.8h73.92l-91.84-144z" />
<glyph unicode="&#xe937;" glyph-name="currency-outlined" data-tags="currency-outlined" d="M128 608c0.138 123.608 100.373 223.758 224 223.758 93.164 0 173.044-56.875 206.812-137.798l0.548-1.48c18.732 4.115 40.704 6.978 63.161 7.971l0.839 0.029c-39.532 115.001-146.77 196.167-272.967 196.167-159.058 0-288-128.942-288-288 0-126.552 81.625-234.040 195.099-272.688l2.028-0.6c1.022 23.296 3.885 45.268 8.468 66.601l-0.468-2.601c-82.535 34.257-139.523 114.203-139.523 207.46 0 0.415 0.001 0.83 0.003 1.244v-0.064zM224 514.56c19.57-15.619 41.926-29.040 65.959-39.287l1.881-0.713c9.521 21.281 19.566 39.344 30.954 56.435l-0.874-1.395c-22.022 8.295-41.064 19.096-58.087 32.365l0.487-0.365zM335.36 689.6c24.96 10.56 60.48 0 96-29.12l40.64 48c-24.365 20.794-53.995 36.17-86.588 43.878l-1.412 0.282v47.36h-64v-49.92c-5.264-1.691-9.607-3.426-13.807-5.412l0.687 0.292c-30.773-12.328-52.655-40.748-55.34-74.574l-0.020-0.306c0-64 61.44-84.16 104.96-96 16.265 17.873 33.736 34.026 52.506 48.583l0.934 0.697c-10.88 3.52-21.76 6.72-32 9.28-50.56 13.44-64 20.8-64 37.12 3.598 9.657 11.45 16.982 21.214 19.785l0.226 0.055zM640 637.12c-175.141 0-317.12-141.979-317.12-317.12s141.979-317.12 317.12-317.12c175.141 0 317.12 141.979 317.12 317.12v0c0 175.141-141.979 317.12-317.12 317.12v0zM640 66.88c-139.794 0-253.12 113.326-253.12 253.12s113.326 253.12 253.12 253.12c139.794 0 253.12-113.326 253.12-253.12v0c-0.182-139.721-113.399-252.938-253.103-253.12h-0.017zM726.080 496.96l-86.080-132.8-86.080 132.8h-73.92l91.84-144h-91.84v-48h122.56l5.44-8.64v-39.36h-128v-48h128v-96h64v96h128v48h-128v39.36l5.44 8.64h122.56v48h-91.84l91.84 144h-73.92z" />
<glyph unicode="&#xe938;" glyph-name="delete-filled" data-tags="delete-filled" d="M192 58.56c1.551-32.695 28.436-58.616 61.375-58.616 0.923 0 1.842 0.020 2.755 0.061l-0.13-0.005h512c0.783-0.036 1.702-0.056 2.625-0.056 32.939 0 59.824 25.921 61.37 58.477l0.005 0.139v613.44h-640zM640 576h64v-480h-64zM480 576h64v-480h-64zM320 576h64v-480h-64zM608 800c0 53.019-42.981 96-96 96s-96-42.981-96-96v0h-288v-64h768v64z" />
<glyph unicode="&#xe939;" glyph-name="delete-outlined" data-tags="delete-outlined" d="M768 64h-512v608h-64v-608c0-35.346 28.654-64 64-64v0h512c35.346 0 64 28.654 64 64v0 608h-64zM352 608h64v-480h-64v480zM608 608h64v-480h-64v480zM480 608h64v-480h-64v480zM608 800c0 53.019-42.981 96-96 96s-96-42.981-96-96v0h-288v-64h768v64z" />
<glyph unicode="&#xe93a;" glyph-name="desktop-filled" data-tags="desktop-filled" d="M128 768h640v-64h64v64c0 35.346-28.654 64-64 64v0h-640c-35.346 0-64-28.654-64-64v0-512c0-35.346 28.654-64 64-64v0h288v-64h-160v-64h320v64h-96v64h96v192h-448zM896 640h-192c-35.346 0-64-28.654-64-64v0-512h320v512c0 35.346-28.654 64-64 64v0zM896 384h-192v64h192zM896 512h-192v64h192z" />
<glyph unicode="&#xe93b;" glyph-name="desktop-outlined" data-tags="desktop-outlined" d="M128 768h640v-64h64v64c0 35.346-28.654 64-64 64v0h-640c-35.346 0-64-28.654-64-64v0-512c0-35.346 28.654-64 64-64v0h288v-64h-160v-64h320v64h-96v64h96v64h-448v64h448v64h-448zM896 640h-192c-35.346 0-64-28.654-64-64v0-512h320v512c0 35.346-28.654 64-64 64v0zM896 128h-192v192h192zM896 384h-192v64h192zM896 512h-192v64h192z" />
<glyph unicode="&#xe93c;" glyph-name="domestic-area-filled" data-tags="domestic-area-filled" d="M896 896h-128c-35.346 0-64-28.654-64-64v0-128h256v128c0 35.346-28.654 64-64 64v0zM704 416h-288v-192h320v-224h160c35.346 0 64 28.654 64 64v0 576h-256zM416 64c0-35.346 28.654-64 64-64v0h192v160h-256zM64 288c0-35.346 28.654-64 64-64v0h32v-160c0-35.346 28.654-64 64-64v0h64c35.346 0 64 28.654 64 64v0 352h-288zM224 832c0 35.346-28.654 64-64 64v0h-32c-35.346 0-64-28.654-64-64v0-96h160zM320 640h-256v-64h320v320h-64v-256z" />
<glyph unicode="&#xe93d;" glyph-name="domestic-area-outlined" data-tags="domestic-area-outlined" d="M896 896h-160c-35.346 0-64-28.654-64-64v0-128h288v128c0 35.346-28.654 64-64 64v0zM896 768h-160v64h160zM672 448h-256v-192h320v-256h160c35.346 0 64 28.654 64 64v0 576h-288zM736 576h160v-512h-96v256h-320v64h256zM416 64c0-35.346 28.654-64 64-64v0h192v192h-256zM480 128h128v-64h-128zM64 288c0-35.346 28.654-64 64-64v0h32v-160c0-35.346 28.654-64 64-64v0h64c35.346 0 64 28.654 64 64v0 384h-288zM128 384h160v-320h-64v224h-96zM256 832c0 35.346-28.654 64-64 64v0h-64c-35.346 0-64-28.654-64-64v0-128h192zM192 768h-64v64h64zM320 640h-256v-64h320v320h-64v-256z" />
<glyph unicode="&#xe93e;" glyph-name="dots-horizontal" data-tags="dots-horizontal" d="M248 376c39.765 0 72 32.235 72 72s-32.235 72-72 72c-39.765 0-72-32.235-72-72v0c0-39.765 32.235-72 72-72v0zM512 376c39.765 0 72 32.235 72 72s-32.235 72-72 72c-39.765 0-72-32.235-72-72v0c0-39.765 32.235-72 72-72v0zM776 376c39.765 0 72 32.235 72 72s-32.235 72-72 72c-39.765 0-72-32.235-72-72v0c0-39.765 32.235-72 72-72v0z" />
<glyph unicode="&#xe93f;" glyph-name="dots-vertical" data-tags="dots-vertical" d="M512 112c39.765 0 72 32.235 72 72s-32.235 72-72 72c-39.765 0-72-32.235-72-72v0c0-39.765 32.235-72 72-72v0zM512 376c39.765 0 72 32.235 72 72s-32.235 72-72 72c-39.765 0-72-32.235-72-72v0c0-39.765 32.235-72 72-72v0zM512 640c39.765 0 72 32.235 72 72s-32.235 72-72 72c-39.765 0-72-32.235-72-72v0c0-39.765 32.235-72 72-72v0z" />
<glyph unicode="&#xe940;" glyph-name="download-filled" data-tags="download-filled" d="M896 288v-160h-768v160h-64v-160c0-35.346 28.654-64 64-64v0h768c35.346 0 64 28.654 64 64v0 160zM535.36 234.24l232.64 245.76h-128v256h-256v-256h-128l232-245.44c5.884-6.542 14.376-10.638 23.825-10.638 9.297 0 17.668 3.965 23.515 10.296l0.020 0.022zM384 864h256v-64h-256v64z" />
<glyph unicode="&#xe941;" glyph-name="download-outlined" data-tags="download-outlined" d="M896 288v-160h-768v160h-64v-160c0-35.346 28.654-64 64-64v0h768c35.346 0 64 28.654 64 64v0 160zM512 224c0.064 0 0.14-0.001 0.217-0.001 9.26 0 17.602 3.934 23.445 10.221l0.018 0.020 232.32 245.76h-128v256h-256v-256h-128l232-245.76c5.862-6.309 14.205-10.244 23.467-10.244 0.187 0 0.374 0.002 0.561 0.005h-0.028zM448 416v256h128v-256h43.2l-107.2-113.6-107.52 113.6zM384 864h256v-64h-256v64z" />
<glyph unicode="&#xe942;" glyph-name="e-money-filled" data-tags="e-money-filled" d="M144 224v512h384v-120c18.107 7.307 39.567 13.618 61.755 17.881l2.245 0.359v165.76c0 53.019-42.981 96-96 96v0h-320c-53.019 0-96-42.981-96-96v0-640c0-53.019 42.981-96 96-96v0h208c-36.667 44.211-62.914 98.36-74.213 157.804l-0.347 2.196zM550.4 234.56h74.24v28.48h-74.24v48.96h45.44l-67.84 136h73.92l56-136 57.6 136h68.48l-67.84-136h45.12v-48.96h-73.92v-28.48h73.92v-48.96h-73.92v-57.6h-61.76v57.92h-75.2zM944 288c0 159.058-128.942 288-288 288s-288-128.942-288-288c0-159.058 128.942-288 288-288v0c159.058 0 288 128.942 288 288v0z" />
<glyph unicode="&#xe943;" glyph-name="e-money-outlined" data-tags="e-money-outlined" d="M176 832v0c-17.673 0-32-14.327-32-32v-32h384v32c0 17.673-14.327 32-32 32h-320zM144 704v-448h160c2.355-23.899 6.532-45.651 12.483-66.656l-0.643 2.656h-171.84v-32c0-17.673 14.327-32 32-32v0h166.4c12.511-24.354 26.333-45.333 42.114-64.649l-0.514 0.649h-208c-53.019 0-96 42.981-96 96v0 640c0 53.019 42.981 96 96 96v0h320c53.019 0 96-42.981 96-96v0-165.76c-24.433-4.622-45.893-10.933-66.42-19.088l2.42 0.848v88zM656 64v0c-123.712 0-224 100.288-224 224v0c0 123.712 100.288 224 224 224s224-100.288 224-224c0-123.712-100.288-224-224-224zM656 0c159.058 0 288 128.942 288 288s-128.942 288-288 288c-159.058 0-288-128.942-288-288v0c0-159.058 128.942-288 288-288v0zM624.64 234.56v28.48h-74.24v48.96h45.44l-67.84 136h73.92l56-136 57.6 136h68.48l-67.84-136h45.12v-48.96h-73.92v-28.48h73.92v-48.96h-73.92v-57.6h-61.76v57.92h-75.2v48.64z" />
<glyph unicode="&#xe944;" glyph-name="edit-filled" data-tags="edit-filled" d="M785.92 658.24l46.080-45.12 45.12 46.080c11.597 11.584 18.77 27.594 18.77 45.28s-7.174 33.696-18.77 45.279l-128.001 128.001c-11.584 11.597-27.594 18.77-45.28 18.77s-33.696-7.174-45.279-18.77l-0.001-0.001-45.44-45.76 45.12-45.12zM785.92 567.68v0l-173.12 173.12-44.8 45.12-376-377.6-64-280.32 280.32 62.4zM212.16 212.16l32 142.080 110.4-110.4zM128 64h768v-64h-768v64z" />
<glyph unicode="&#xe945;" glyph-name="edit-outlined" data-tags="edit-outlined" d="M704 832l128-128-46.080-45.76 46.080-45.12 45.12 46.080c11.597 11.584 18.77 27.594 18.77 45.28s-7.174 33.696-18.77 45.279l-128.001 128.001c-11.584 11.597-27.594 18.77-45.28 18.77s-33.696-7.174-45.279-18.77l-0.001-0.001-45.44-45.76 45.12-45.12zM785.92 567.68l-217.92 217.92-376-377.28-64-280.32 280.32 62.4zM212.16 212.16l32 142.080 110.4-110.4zM280.64 408.32l288 288 128-128-288-288zM128 64h768v-64h-768v64z" />
<glyph unicode="&#xe946;" glyph-name="external-link" data-tags="external-link" d="M704 64h-576v576h320v64h-320c-35.346 0-64-28.654-64-64v0-576c0-35.346 28.654-64 64-64v0h576c35.346 0 64 28.654 64 64v0 320h-64zM896 896h-320v-64h274.88l-434.88-434.88 45.12-45.12 434.88 434.88v-274.88h64v384h-64z" />
<glyph unicode="&#xe947;" glyph-name="eye-ban-filled" data-tags="eye-ban-filled" d="M784 221.12c75.043 60.020 134.752 136.032 174.452 223.090l1.548 3.79s-128 320-448 320c-0.644 0.003-1.406 0.005-2.169 0.005-79.227 0-153.517-21.14-217.537-58.086l2.106 1.121-192 192-44.8-45.76 182.4-182.4c-75.043-60.020-134.752-136.032-174.452-223.090l-1.548-3.79s128-320 448-320c0.644-0.003 1.406-0.005 2.169-0.005 79.227 0 153.517 21.14 217.537 58.086l-2.106-1.121 192-192 45.12 45.12zM512 320c-70.692 0-128 57.308-128 128v0c0.358 23.685 7.094 45.723 18.56 64.566l-0.32-0.566 173.76-173.76c-18.216-11.348-40.305-18.121-63.967-18.24h-0.033zM621.76 384l-173.76 173.76c18.277 11.146 40.316 17.882 63.901 18.239l0.099 0.001c70.692 0 128-57.308 128-128v0c-0.119-23.696-6.893-45.785-18.544-64.525l0.304 0.525z" />
<glyph unicode="&#xe948;" glyph-name="eye-ban-outlined" data-tags="eye-ban-outlined" d="M784 221.12c75.043 60.020 134.752 136.032 174.452 223.090l1.548 3.79s-128 320-448 320c-0.644 0.003-1.406 0.005-2.169 0.005-79.227 0-153.517-21.14-217.537-58.086l2.106 1.121-192 192-44.8-45.76 182.4-182.4c-75.043-60.020-134.752-136.032-174.452-223.090l-1.548-3.79s128-320 448-320c0.644-0.003 1.406-0.005 2.169-0.005 79.227 0 153.517 21.14 217.537 58.086l-2.106-1.121 192-192 45.12 45.12zM512 192c-227.2 0-343.040 188.16-377.6 256 37.272 72.464 88.165 132.973 149.78 180.192l1.26 0.928 93.12-93.12c-16.309-24.66-26.019-54.925-26.019-87.459 0-88.366 71.634-160 160-160 32.534 0 62.799 9.71 88.057 26.39l-0.598-0.371 82.24-82.24c-48.87-25.418-106.71-40.327-168.032-40.327-0.776 0-1.552 0.002-2.327 0.007l0.119-0.001zM553.28 361.6c-12.102-5.914-26.333-9.373-41.373-9.373-53.019 0-96 42.981-96 96 0 15.039 3.458 29.271 9.623 41.942l-0.25-0.57zM470.72 534.4c12.102 5.914 26.333 9.373 41.373 9.373 53.019 0 96-42.981 96-96 0-15.039-3.458-29.271-9.623-41.942l0.25 0.57-64 64zM645.44 360c16.309 24.66 26.019 54.925 26.019 87.459 0 88.366-71.634 160-160 160-32.534 0-62.799-9.71-88.057-26.39l0.598 0.371-82.24 82.24c48.87 25.418 106.71 40.327 168.032 40.327 0.776 0 1.552-0.002 2.327-0.007l-0.119 0.001c227.2 0 343.040-188.16 377.6-256-37.272-72.464-88.165-132.973-149.78-180.192l-1.26-0.928z" />
<glyph unicode="&#xe949;" glyph-name="eye-filled" data-tags="eye-filled" d="M512 768c-320 0-448-320-448-320s128-320 448-320 448 320 448 320-128 320-448 320zM512 320c-70.692 0-128 57.308-128 128s57.308 128 128 128c70.692 0 128-57.308 128-128v0c0-70.692-57.308-128-128-128v0z" />
<glyph unicode="&#xe94a;" glyph-name="eye-outlined" data-tags="eye-outlined" d="M512 768c-320 0-448-320-448-320s128-320 448-320 448 320 448 320-128 320-448 320zM512 192c-227.2 0-343.040 187.84-377.28 256 34.56 67.2 153.28 256 377.28 256s343.040-187.84 377.28-256c-34.56-67.2-151.68-256-377.28-256zM512 608c-88.366 0-160-71.634-160-160s71.634-160 160-160c88.366 0 160 71.634 160 160v0c0 88.366-71.634 160-160 160v0zM512 352c-53.019 0-96 42.981-96 96s42.981 96 96 96c53.019 0 96-42.981 96-96v0c0-53.019-42.981-96-96-96v0z" />
<glyph unicode="&#xe94b;" glyph-name="favourites-filled" data-tags="favourites-filled" d="M960 621.44c0.002 0.36 0.003 0.786 0.003 1.212 0 133.079-107.881 240.96-240.96 240.96-87.583 0-164.252-46.727-206.438-116.611l-0.605-1.081c-42.791 70.965-119.46 117.692-207.043 117.692-133.079 0-240.96-107.881-240.96-240.96 0-0.426 0.001-0.852 0.003-1.278v0.066c0-312 448-589.44 448-589.44s448 277.44 448 589.44z" />
<glyph unicode="&#xe94c;" glyph-name="favourites-outlined" data-tags="favourites-outlined" d="M723.2 861.76c-0.667 0.007-1.456 0.010-2.245 0.010-86.775 0-162.823-45.93-205.158-114.806l-0.597-1.045c-42.609 71.445-119.489 118.556-207.372 118.556-132.057 0-239.269-106.372-240.627-238.107l-0.001-0.129c-3.2-312 440.32-594.24 440.32-594.24s452.48 272.64 454.4 584.64c0.011 0.864 0.017 1.884 0.017 2.905 0 132.554-106.467 240.241-238.552 242.212l-0.186 0.002zM691.2 253.76c-54.855-51.77-114.506-99.94-177.708-143.311l-5.012-3.249c-66.628 47.751-125.231 97.115-179.75 150.625l0.23-0.225c-91.84 92.48-200.96 229.76-199.040 367.68 0.724 97.888 80.245 176.963 178.235 176.963 0.339 0 0.678-0.001 1.017-0.003h-0.052c64.262-0.782 120.152-35.884 150.268-87.797l0.452-0.843 54.080-92.8 56 91.52c31.165 51.533 86.901 85.452 150.558 85.452 0.732 0 1.463-0.004 2.193-0.013l-0.111 0.001c97.199-1.613 175.374-80.785 175.374-178.217 0-0.796-0.005-1.59-0.016-2.383l0.001 0.12c-1.92-137.28-113.28-272.96-206.72-361.28z" />
<glyph unicode="&#xe94d;" glyph-name="ferry-filled" data-tags="ferry-filled" d="M530.88 573.12l333.12-102.4v137.28c0 35.346-28.654 64-64 64v0h-32v96c0 35.346-28.654 64-64 64v0h-160v64h-64v-64h-160c-35.346 0-64-28.654-64-64v0-96h-32c-35.346 0-64-28.654-64-64v0-137.28l333.12 102.4c5.646 1.807 12.142 2.848 18.88 2.848s13.234-1.041 19.333-2.972l-0.453 0.124zM576 736h64v-96h-64zM448 640h-64v96h64zM896 96c-9.289-19.083-28.536-32.001-50.799-32.001-0.141 0-0.282 0.001-0.422 0.002h0.022c-22.306 0.238-41.565 13.048-51.048 31.671l-0.152 0.329h-64c-9.465-19.1-28.826-32-51.2-32v0c-22.306 0.238-41.565 13.048-51.048 31.671l-0.152 0.329h-64c-9.465-19.1-28.826-32-51.2-32v0c-22.262 0.39-41.457 13.144-51.046 31.673l-0.154 0.327h-64c-9.289-19.083-28.536-32.001-50.799-32.001-0.141 0-0.282 0.001-0.422 0.002h0.022c-22.262 0.39-41.457 13.144-51.046 31.673l-0.154 0.327h-64c-9.116-19.551-28.604-32.857-51.2-32.857s-42.084 13.307-51.055 32.511l-0.145 0.346h-64c8.801-54.733 55.694-96.039 112.234-96.039 1.043 0 2.082 0.014 3.118 0.042l-0.153-0.003c0.33-0.003 0.72-0.005 1.11-0.005 31.704 0 60.566 12.165 82.175 32.082l-0.084-0.077c21.694-20.391 50.984-32.919 83.2-32.919s61.506 12.528 83.264 32.978l-0.064-0.059c21.694-20.391 50.984-32.919 83.2-32.919s61.506 12.528 83.264 32.978l-0.064-0.059c21.694-20.391 50.984-32.919 83.2-32.919s61.506 12.528 83.264 32.978l-0.064-0.059c21.524-19.84 50.386-32.005 82.090-32.005 0.39 0 0.78 0.002 1.169 0.006h-0.059c0.883-0.025 1.923-0.039 2.966-0.039 56.54 0 103.433 41.306 112.148 95.388l0.087 0.651zM170.56 160h309.44v342.080l-320-98.88c-26.372-8.307-45.163-32.541-45.163-61.165 0-7.194 1.187-14.111 3.376-20.566l-0.133 0.451zM544 160h309.44l53.76 161.92c1.984 5.904 3.129 12.702 3.129 19.768 0 29.052-19.357 53.582-45.877 61.398l-0.453 0.114-320 98.88z" />
<glyph unicode="&#xe94e;" glyph-name="ferry-outlined" data-tags="ferry-outlined" d="M224 521.28v86.72h96v160h384v-160h96v-85.76l64-19.2v104.96c0 35.346-28.654 64-64 64v0h-32v96c0 35.346-28.654 64-64 64v0h-160v64h-64v-64h-160c-35.346 0-64-28.654-64-64v0-96h-32c-35.346 0-64-28.654-64-64v0-105.28zM383.292 703.74l64 0.223 0.335-95.999-64-0.223-0.335 95.999zM575.245 704.309l64 0.212 0.318-95.999-64-0.212-0.318 95.999zM896 96c-9.465-19.1-28.826-32-51.2-32v0c-22.306 0.238-41.565 13.048-51.048 31.671l-0.152 0.329h-64c-9.305-19.547-28.898-32.816-51.59-32.816-22.066 0-41.202 12.547-50.661 30.897l-0.15 0.319h-64c-9.128-19.766-28.78-33.235-51.578-33.235-22.176 0-41.375 12.744-50.673 31.308l-0.148 0.327h-64c-9.465-19.1-28.826-32-51.2-32s-41.735 12.9-51.051 31.668l-0.149 0.332h-64c-9.582-18.477-28.565-30.884-50.445-30.884-23.125 0-43.012 13.858-51.812 33.722l-0.143 0.362h-64c8.779-54.758 55.684-96.091 112.243-96.091 1.603 0 3.198 0.033 4.784 0.099l-0.227-0.007c0.199-0.001 0.433-0.002 0.669-0.002 31.742 0 60.643 12.162 82.298 32.081l-0.087-0.079c21.835-19.849 50.976-32.001 82.955-32.001 0.199 0 0.397 0 0.596 0.001h-0.031c0.199-0.001 0.433-0.002 0.669-0.002 31.742 0 60.643 12.162 82.298 32.081l-0.087-0.079c21.614-19.844 50.557-32.006 82.34-32.006 0.415 0 0.829 0.002 1.243 0.006h-0.063c0.346-0.004 0.755-0.006 1.164-0.006 31.585 0 60.327 12.17 81.793 32.076l-0.077-0.071c21.345-19.84 50.051-32.015 81.601-32.015 0.675 0 1.348 0.006 2.021 0.017l-0.101-0.001c0.235-0.002 0.514-0.003 0.792-0.003 31.703 0 60.564 12.164 82.172 32.079l-0.084-0.077c21.524-19.842 50.388-32.008 82.094-32.008 0.501 0 1.002 0.003 1.502 0.009l-0.076-0.001c0.489-0.008 1.066-0.012 1.644-0.012 56.468 0 103.285 41.316 111.872 95.368l0.084 0.644zM182.4 160h67.52l-72.32 212.8 302.4 96v-308.8h64v307.2l302.72-91.84-70.4-215.36h67.2l64 193.92c2.214 6.216 3.493 13.386 3.493 20.855 0 29.301-19.691 54.004-46.563 61.596l-0.451 0.109-333.44 101.76c-5.646 1.807-12.142 2.848-18.88 2.848s-13.234-1.041-19.333-2.972l0.453 0.124-332.8-104.32c-26.922-7.963-46.231-32.468-46.231-61.484 0-7.313 1.227-14.34 3.486-20.886l-0.135 0.45z" />
<glyph unicode="&#xe94f;" glyph-name="filter-filled" data-tags="filter-filled" d="M896 864h-768c-0.028 0-0.061 0-0.093 0-35.346 0-64-28.654-64-64 0-16.98 6.613-32.416 17.403-43.872l334.69-356.768v-367.36h64l128 128v239.36l334.72 356.8c10.761 11.424 17.373 26.86 17.373 43.84 0 35.346-28.654 64-64 64-0.033 0-0.066 0-0.098 0h0.005z" />
<glyph unicode="&#xe950;" glyph-name="filter-outlined" data-tags="filter-outlined" d="M544 160h64v239.36l334.72 356.8c10.761 11.424 17.373 26.86 17.373 43.84 0 35.346-28.654 64-64 64-0.033 0-0.066 0-0.098 0h-767.995c-0.028 0-0.061 0-0.093 0-35.346 0-64-28.654-64-64 0-16.98 6.613-32.416 17.403-43.872l334.69-356.768v-367.36h64v392.64l-352 375.36h768l-352-375.36z" />
<glyph unicode="&#xe951;" glyph-name="folder-filled" data-tags="folder-filled" d="M896 704h-384l-43.84 91.52c-10.507 21.695-32.327 36.406-57.59 36.48h-234.25c-29.040-0.043-53.542-19.421-61.326-45.948l-0.114-0.452-50.88-177.6v-480c0-35.346 28.654-64 64-64v0h768c35.346 0 64 28.654 64 64v0 512c0 35.346-28.654 64-64 64v0z" />
<glyph unicode="&#xe952;" glyph-name="folder-outlined" data-tags="folder-outlined" d="M896 704h-384l-43.84 91.52c-10.507 21.695-32.327 36.406-57.59 36.48h-234.25c-29.040-0.043-53.542-19.421-61.326-45.948l-0.114-0.452-50.88-177.6v-480c0-35.346 28.654-64 64-64v0h768c35.346 0 64 28.654 64 64v0 512c0 35.346-28.654 64-64 64v0zM896 128h-768v471.040l48.32 168.96h234.24l43.84-91.52 17.28-36.48h424.32z" />
<glyph unicode="&#xe953;" glyph-name="gift-filled" data-tags="gift-filled" d="M160 96c0-35.346 28.654-64 64-64v0h192v352h-256zM480 384h64v-352h-64v352zM608 32h192c35.346 0 64 28.654 64 64v0 288h-256zM480 672h64v-224h-64v224zM352 864c-70.498-0.256-127.549-57.465-127.549-127.999 0-23.564 6.368-45.642 17.476-64.605l-0.327 0.604h-81.6c-35.346 0-64-28.654-64-64v0-160h320v224h-64c-35.346 0-64 28.654-64 64s28.654 64 64 64c35.346 0 64-28.654 64-64v0-64h64v64c0 70.692-57.308 128-128 128v0zM864 672h-81.6c11.059 18.543 17.598 40.893 17.598 64.771 0 70.692-57.308 128-128 128s-128-57.308-128-128c0-0.271 0.001-0.542 0.003-0.813v0.042-64h64v64c0 35.346 28.654 64 64 64s64-28.654 64-64c0-35.346-28.654-64-64-64v0h-64v-224h320v160c0 35.346-28.654 64-64 64v0z" />
<glyph unicode="&#xe954;" glyph-name="gift-outlined" data-tags="gift-outlined" d="M928 448v160c0 35.346-28.654 64-64 64v0h-81.6c11.059 18.543 17.598 40.893 17.598 64.771 0 70.692-57.308 128-128 128s-128-57.308-128-128c0-0.271 0.001-0.542 0.003-0.813v0.042-64h-64v64c0.001 0.229 0.002 0.5 0.002 0.771 0 70.692-57.308 128-128 128s-128-57.308-128-128c0-23.878 6.538-46.229 17.922-65.36l-0.324 0.589h-81.6c-35.346 0-64-28.654-64-64v0-160h320v-352h-192v288h-64v-288c0-35.346 28.654-64 64-64v0h576c35.346 0 64 28.654 64 64v0 288h-64v-288h-192v352zM608 736c0 35.346 28.654 64 64 64s64-28.654 64-64c0-35.346-28.654-64-64-64v0h-64zM608 608h256v-96h-256zM416 512h-256v96h256zM416 672h-64c-35.346 0-64 28.654-64 64s28.654 64 64 64c35.346 0 64-28.654 64-64v0zM544 96h-64v352h64zM544 512h-64v96h64z" />
<glyph unicode="&#xe955;" glyph-name="grid-mode-filled" data-tags="grid-mode-filled" d="M192 832c-35.346 0-64-28.654-64-64v0-192c0-35.346 28.654-64 64-64v0h192c35.346 0 64 28.654 64 64v0 192c0 35.346-28.654 64-64 64v0zM640 832c-35.346 0-64-28.654-64-64v0-192c0-35.346 28.654-64 64-64v0h192c35.346 0 64 28.654 64 64v0 192c0 35.346-28.654 64-64 64v0zM128 320c0 35.346 28.654 64 64 64v0h192c35.346 0 64-28.654 64-64v0-192c0-35.346-28.654-64-64-64v0h-192c-35.346 0-64 28.654-64 64v0zM640 384c-35.346 0-64-28.654-64-64v0-192c0-35.346 28.654-64 64-64v0h192c35.346 0 64 28.654 64 64v0 192c0 35.346-28.654 64-64 64v0z" />
<glyph unicode="&#xe956;" glyph-name="grid-mode-outlined" data-tags="grid-mode-outlined" d="M192 544h224v224h-224zM128 768c0 35.346 28.654 64 64 64v0h224c35.346 0 64-28.654 64-64v0-224c0-35.346-28.654-64-64-64v0h-224c-35.346 0-64 28.654-64 64v0zM608 544h224v224h-224zM544 768c0 35.346 28.654 64 64 64v0h224c35.346 0 64-28.654 64-64v0-224c0-35.346-28.654-64-64-64v0h-224c-35.346 0-64 28.654-64 64v0zM416 128h-224v224h224zM192 416c-35.346 0-64-28.654-64-64v0-224c0-35.346 28.654-64 64-64v0h224c35.346 0 64 28.654 64 64v0 224c0 35.346-28.654 64-64 64v0zM608 128h224v224h-224zM544 352c0 35.346 28.654 64 64 64v0h224c35.346 0 64-28.654 64-64v0-224c0-35.346-28.654-64-64-64v0h-224c-35.346 0-64 28.654-64 64v0z" />
<glyph unicode="&#xe957;" glyph-name="help-filled" data-tags="help-filled" d="M512 896c-247.424 0-448-200.576-448-448s200.576-448 448-448c247.424 0 448 200.576 448 448v0c0 247.424-200.576 448-448 448v0zM512 192c-26.51 0-48 21.49-48 48s21.49 48 48 48c26.51 0 48-21.49 48-48v0c0-26.51-21.49-48-48-48v0zM544 419.84v-67.84h-64v96c0 17.673 14.327 32 32 32v0c44.183 0 80 35.817 80 80s-35.817 80-80 80c-44.183 0-80-35.817-80-80v0-16h-64v16c0 0.071 0 0.155 0 0.239 0 79.529 64.471 144 144 144s144-64.471 144-144c0-68.183-47.388-125.298-111.026-140.207l-0.974-0.192z" />
<glyph unicode="&#xe958;" glyph-name="help-outlined" data-tags="help-outlined" d="M560 240c0-26.51-21.49-48-48-48s-48 21.49-48 48c0 26.51 21.49 48 48 48s48-21.49 48-48zM512 896c-247.424 0-448-200.576-448-448s200.576-448 448-448c247.424 0 448 200.576 448 448v0c0 247.424-200.576 448-448 448v0zM512 64c-212.077 0-384 171.923-384 384s171.923 384 384 384c212.077 0 384-171.923 384-384v0c0-212.077-171.923-384-384-384v0zM512 704c-0.095 0-0.208 0-0.32 0-79.352 0-143.68-64.328-143.68-143.68 0-0.113 0-0.225 0-0.338v0.017-16h64v16c0 44.183 35.817 80 80 80s80-35.817 80-80c0-44.183-35.817-80-80-80v0c-17.673 0-32-14.327-32-32v0-96h64v67.84c64.103 15.481 110.982 72.348 110.982 140.164 0 79.171-63.892 143.419-142.927 143.996h-0.055z" />
<glyph unicode="&#xe959;" glyph-name="home-filled" data-tags="home-filled" d="M512 864l-448-448h128v-320c0-35.346 28.654-64 64-64v0h112v194.88c0.181 51.356 41.764 92.939 93.103 93.12h101.777c51.356-0.181 92.939-41.764 93.12-93.103v-194.897h112c35.346 0 64 28.654 64 64v0 320h128zM562.88 256h-101.76c-16.083 0-29.12-13.037-29.12-29.12v-194.88h160v194.88c0 16.083-13.037 29.12-29.12 29.12v0z" />
<glyph unicode="&#xe95a;" glyph-name="home-outlined" data-tags="home-outlined" d="M512 864l-448-448h128v-320c0-35.346 28.654-64 64-64v0h64v64h-64v384h-37.44l293.44 293.44 293.44-293.44h-37.44v-384h-64v-64h64c35.346 0 64 28.654 64 64v0 320h128zM576 352h-128c-35.346 0-64-28.654-64-64v0-256h256v256c0 35.346-28.654 64-64 64v0zM576 96h-128v192h128z" />
<glyph unicode="&#xe95b;" glyph-name="identification-document-filled" data-tags="identification-document-filled" d="M672 592v240c0 35.2-28.8 64-64 64h-480c-35.2 0-64-28.8-64-64v-576c0-35.2 28.8-64 64-64h297.6c-28.8 83.2-41.6 169.6-41.6 256l288 144zM192 736h320v-64h-320v64zM192 608h224v-64h-224v64zM320 416h-128v64h128v-64zM704 544l-256-131.2v-19.2c6.4-89.6 28.8-179.2 67.2-259.2 25.6-38.4 60.8-73.6 102.4-92.8 19.2-9.6 35.2-19.2 48-25.6l16-6.4 3.2-3.2 19.2-6.4 12.8 6.4 3.2 3.2 16 6.4c12.8 6.4 28.8 16 48 25.6 41.6 22.4 76.8 54.4 102.4 92.8 41.6 80 64 169.6 70.4 259.2v19.2l-252.8 131.2zM729.6 160c-6.4-9.6-12.8-12.8-22.4-16-9.6 0-19.2 3.2-25.6 9.6l-105.6 102.4 44.8 44.8 76.8-73.6 89.6 144 57.6-32-115.2-179.2z" />
<glyph unicode="&#xe95c;" glyph-name="identification-document-outlined" data-tags="identification-document-outlined" d="M640 832h-512v-576h256l16-64h-272c-35.346 0-64 28.654-64 64v0 576c0 35.346 28.654 64 64 64v0h512c35.346 0 64-28.654 64-64v0-192l-64-32zM192 736h352v-64h-352zM192 608h256v-64h-256zM352 480h-160v-64h160zM704 547.84l256-131.84v-20.8c-5.728-96.593-30.503-186.14-70.601-266.72l1.801 4c-26.262-40.475-61.549-72.996-103.146-95.269l-1.494-0.731c-18.88-10.88-36.16-19.84-48.96-25.6l-15.68-7.040-4.16-1.92h-1.92l-11.84 30.080-11.84-29.76h-1.92l-4.16 1.92-14.080 7.68c-12.8 5.76-30.080 14.72-48.96 25.6-43.091 23.004-78.378 55.525-103.982 94.919l-0.658 1.081c-38.654 76.109-63.944 165.127-70.287 259.339l-0.113 2.101v21.12zM692.16 3.84l11.84 28.16 11.84-29.76-11.84-4.8zM704 67.84l6.4 2.88c11.52 5.44 27.2 13.12 43.84 23.040 32.787 16.574 59.889 40.091 80.187 68.765l0.453 0.675c31.6 62.553 53.321 135.443 60.916 212.481l0.204 2.559-192 97.92-190.4-97.92c7.124-79.786 28.327-153.082 61.137-219.628l-1.617 3.628c20.751-29.349 47.853-52.866 79.408-68.873l1.232-0.567c16.64-9.92 32-17.6 43.84-23.040zM730.56 191.36l96 144-58.56 32.64-69.12-109.76-52.16 52.48-45.44-45.44 80-80c5.798-5.833 13.826-9.443 22.697-9.443 1.135 0 2.256 0.059 3.361 0.174l-0.138-0.012c9.825 1.108 18.196 6.521 23.285 14.279l0.075 0.121z" />
<glyph unicode="&#xe95d;" glyph-name="image-filled" data-tags="image-filled" d="M768 274.88l-113.6 113.92-50.88-50.88 36.16-36.16-45.44-45.12-195.84 196.16-142.4-142.4v-86.4h512v50.88zM558.080 384l96 96 113.92-114.56v306.56h-512v-271.040l142.4 143.040zM656 608c26.51 0 48-21.49 48-48s-21.49-48-48-48c-26.51 0-48 21.49-48 48v0c0 26.51 21.49 48 48 48v0zM896 864h-768c-35.346 0-64-28.654-64-64v0-704c0-35.346 28.654-64 64-64v0h768c35.346 0 64 28.654 64 64v0 704c0 35.346-28.654 64-64 64v0zM832 160h-640v576h640z" />
<glyph unicode="&#xe95e;" glyph-name="image-outlined" data-tags="image-outlined" d="M896 864h-768c-35.346 0-64-28.654-64-64v0-704c0-35.346 28.654-64 64-64v0h768c35.346 0 64 28.654 64 64v0 704c0 35.346-28.654 64-64 64v0zM896 96h-768v704h768zM704 560c0-26.51-21.49-48-48-48s-48 21.49-48 48c0 26.51 21.49 48 48 48s48-21.49 48-48zM832 736h-640v-576h640zM768 224h-512v86.4l142.4 142.4 195.84-196.8 45.76 45.76-36.16 36.16 50.88 50.88 113.28-113.92zM768 365.44l-113.6 114.56-96-96-160 160-142.4-143.040v271.040h512z" />
<glyph unicode="&#xe95f;" glyph-name="info-filled" data-tags="info-filled" d="M512 896c-247.424 0-448-200.576-448-448s200.576-448 448-448c247.424 0 448 200.576 448 448v0c0 247.424-200.576 448-448 448v0zM544 224h-64v288h64zM512 576c-26.51 0-48 21.49-48 48s21.49 48 48 48c26.51 0 48-21.49 48-48v0c0-26.51-21.49-48-48-48v0z" />
<glyph unicode="&#xe960;" glyph-name="info-outlined" data-tags="info-outlined" d="M480 512h64v-288h-64v288zM560 624c0-26.51-21.49-48-48-48s-48 21.49-48 48c0 26.51 21.49 48 48 48s48-21.49 48-48zM512 896c-247.424 0-448-200.576-448-448s200.576-448 448-448c247.424 0 448 200.576 448 448v0c0 247.424-200.576 448-448 448v0zM512 64c-212.077 0-384 171.923-384 384s171.923 384 384 384c212.077 0 384-171.923 384-384v0c0-212.077-171.923-384-384-384v0z" />
<glyph unicode="&#xe961;" glyph-name="keyboard-filled" data-tags="keyboard-filled" d="M896 768h-768c-35.346 0-64-28.654-64-64v0-512c0-35.346 28.654-64 64-64v0h768c35.346 0 64 28.654 64 64v0 512c0 35.346-28.654 64-64 64v0zM608 608h64v-64h-64zM608 480h64v-64h-64zM480 608h64v-64h-64zM480 480h64v-64h-64zM352 608h64v-64h-64zM352 480h64v-64h-64zM224 608h64v-64h-64zM224 480h64v-64h-64zM736 288h-448v64h448zM800 416h-64v64h64zM800 544h-64v64h64z" />
<glyph unicode="&#xe962;" glyph-name="keyboard-outlined" data-tags="keyboard-outlined" d="M896 768h-768c-35.346 0-64-28.654-64-64v0-512c0-35.346 28.654-64 64-64v0h768c35.346 0 64 28.654 64 64v0 512c0 35.346-28.654 64-64 64v0zM896 192h-768v512h768zM288 352h448v-64h-448v64zM224 608h64v-64h-64v64zM224 480h64v-64h-64v64zM352 608h64v-64h-64v64zM352 480h64v-64h-64v64zM480 608h64v-64h-64v64zM480 480h64v-64h-64v64zM608 608h64v-64h-64v64zM608 480h64v-64h-64v64zM736 608h64v-64h-64v64zM736 480h64v-64h-64v64z" />
<glyph unicode="&#xe963;" glyph-name="language-filled" data-tags="language-filled" d="M688 509.12c21.063 18.641 38.515 40.791 51.557 65.62l0.603 1.26h-104.32c13.645-26.089 31.097-48.239 51.917-66.669l0.243-0.211zM285.44 512h69.12l-34.56 100.16-34.56-100.16zM896 896h-768c-35.346 0-64-28.654-64-64v0-608c0-35.346 28.654-64 64-64v0h240l144-160 144 160h240c35.346 0 64 28.654 64 64v0 608c0 35.346-28.654 64-64 64v0zM398.4 384l-22.080 64h-112.64l-22.080-64h-64l97.6 288h89.6l99.2-288zM848 576h-39.040c-14.487-40.788-37.263-75.514-66.473-103.597l-0.087-0.083c30.429-15.34 66.322-24.324 104.313-24.324 0.452 0 0.905 0.001 1.356 0.004h-0.070v-64c-0.18 0-0.393-0.001-0.607-0.001-59.072 0-114.163 17.046-160.622 46.488l1.229-0.727c-45.23-28.714-100.321-45.761-159.393-45.761-0.213 0-0.427 0-0.64 0.001h0.033v64c0.382-0.002 0.834-0.004 1.287-0.004 37.991 0 73.885 8.983 105.672 24.941l-1.358-0.618c-29.297 28.166-52.073 62.892-65.984 101.832l-0.576 1.848h-39.040v64h128v64h64v-64h128z" />
<glyph unicode="&#xe964;" glyph-name="language-outlined" data-tags="language-outlined" d="M279.68 448h112.64l23.68-64h64l-99.2 288h-89.6l-99.2-288h65.6zM336 612.16l34.56-100.16h-69.12zM832 384v64c-0.382-0.002-0.834-0.004-1.287-0.004-37.991 0-73.885 8.983-105.672 24.941l1.358-0.618c29.297 28.166 52.073 62.892 65.984 101.832l0.576 1.848h39.040v64h-128v64h-64v-64h-128v-64h39.040c14.487-40.788 37.263-75.514 66.473-103.597l0.087-0.083c-30.429-15.34-66.322-24.324-104.313-24.324-0.452 0-0.905 0.001-1.356 0.004h0.070v-64c0.18 0 0.393-0.001 0.607-0.001 59.072 0 114.163 17.046 160.622 46.488l-1.229-0.727c45.23-28.714 100.321-45.761 159.393-45.761 0.213 0 0.427 0 0.64 0.001h-0.033zM619.84 576h104.32c-13.645-26.089-31.097-48.239-51.917-66.669l-0.243-0.211c-21.063 18.641-38.515 40.791-51.557 65.62l-0.603 1.26zM896 896h-768c-35.346 0-64-28.654-64-64v0-608c0-35.346 28.654-64 64-64v0h240l144-160 144 160h240c35.346 0 64 28.654 64 64v0 608c0 35.346-28.654 64-64 64v0zM896 224h-268.48l-19.2-21.12-96.32-106.88-96 107.2-19.2 21.12h-268.8v607.68h768z" />
<glyph unicode="&#xe965;" glyph-name="laptop-filled" data-tags="laptop-filled" d="M864 800c0 35.346-28.654 64-64 64v0h-576c-35.346 0-64-28.654-64-64v0-384h704zM800 480h-576v320h576zM926.080 111.68l-48.96 240.32h-730.24l-48.96-240.32c-1.243-4.715-1.958-10.128-1.958-15.708 0-34.684 27.591-62.924 62.021-63.97l0.096-0.002h707.84c34.527 1.048 62.118 29.288 62.118 63.972 0 5.58-0.714 10.993-2.056 16.153l0.098-0.445zM544 288h64v-64h-64zM416 288h64v-64h-64zM352 224h-64v64h64zM640 96h-256v64h256zM736 224h-64v64h64z" />
<glyph unicode="&#xe966;" glyph-name="laptop-outlined" data-tags="laptop-outlined" d="M288 352h64v-64h-64v64zM416 352h64v-64h-64v64zM544 352h64v-64h-64v64zM672 352h64v-64h-64v64zM864 800c0 35.346-28.654 64-64 64v0h-576c-35.346 0-64-28.654-64-64v0-384h704zM800 480h-576v320h576zM926.080 111.68l-48.96 240.32h-64l50.88-253.12v-2.88h-192v128h-320v-128h-192s0 0 0 0v2.24l52.16 253.76h-64l-50.24-240.32c-1.243-4.715-1.958-10.128-1.958-15.708 0-34.684 27.591-62.924 62.021-63.97l0.096-0.002h707.84c34.527 1.048 62.118 29.288 62.118 63.972 0 5.58-0.714 10.993-2.056 16.153l0.098-0.445zM608 96h-192v64h192z" />
<glyph unicode="&#xe967;" glyph-name="like-filled" data-tags="like-filled" d="M160 512h-96v-512h96c35.346 0 64 28.654 64 64v0 384c0 35.346-28.654 64-64 64v0zM896 512h-288s64 192 64 256v80c0 26.51-21.49 48-48 48v0h-16c-16.96 0-32-32-32-32l-64-128-205.12-205.12c-11.662-11.595-18.88-27.649-18.88-45.389 0-0.018 0-0.036 0-0.053v0.003-357.44c0-70.692 57.308-128 128-128v0h325.44c0.015 0 0.033 0 0.051 0 17.74 0 33.794 7.218 45.386 18.877l154.243 154.243c11.662 11.595 18.88 27.649 18.88 45.389 0 0.018 0 0.036 0 0.053v-0.003 229.44c0 35.346-28.654 64-64 64v0z" />
<glyph unicode="&#xe968;" glyph-name="like-outlined" data-tags="like-outlined" d="M160 512h-96v-64h96v-384h-96v-64h96c35.346 0 64 28.654 64 64v0 384c0 35.346-28.654 64-64 64v0zM896 512h-256s64 192 64 256v32c0.030 0.886 0.047 1.927 0.047 2.972 0 47.007-34.474 85.961-79.519 92.96l-0.528 0.068h-48c-16.96 0-32-32-32-32l-64-128-173.12-205.12c-11.662-11.595-18.88-27.649-18.88-45.389 0-0.018 0-0.036 0-0.053v0.003-357.44c0-70.692 57.308-128 128-128v0h325.44c0.015 0 0.033 0 0.051 0 17.74 0 33.794 7.218 45.386 18.877l154.243 154.243c11.662 11.595 18.88 27.649 18.88 45.389 0 0.018 0 0.036 0 0.053v-0.003 229.44c0 35.346-28.654 64-64 64v0zM896 218.56l-154.56-154.56h-325.44c-35.346 0-64 28.654-64 64v0 357.44l1.92 1.92v2.24l178.24 210.88 3.52 7.040 64 124.48h20.8c11.641-5.541 19.544-17.209 19.544-30.723 0-0.449-0.009-0.896-0.026-1.341l0.002 0.064v-32c-14.658-89.589-35.8-168.936-63.744-244.998l2.944 9.158-27.84-84.16h344.64z" />
<glyph unicode="&#xe969;" glyph-name="link-outlined" data-tags="link-outlined" d="M512 719.68l45.12-45.44 90.56 90.56c23.176 23.176 55.194 37.511 90.56 37.511 70.732 0 128.071-57.339 128.071-128.071 0-35.366-14.335-67.384-37.511-90.56v0l-181.12-180.8c-23.152-23.098-55.108-37.381-90.4-37.381s-67.248 14.283-90.402 37.383l0.002-0.002-45.44-45.44c34.753-34.79 82.783-56.311 135.84-56.311s101.087 21.521 135.838 56.309l180.802 181.122c37.645 35.147 61.109 85.068 61.109 140.469 0 106.039-85.961 192-192 192-55.401 0-105.322-23.465-140.366-60.998l-0.103-0.112zM150.080 357.44c-31.928-34.194-51.531-80.253-51.531-130.891 0-106.039 85.961-192 192-192 50.637 0 96.696 19.603 131.002 51.634l-0.112-0.103 90.56 90.24-45.12 45.44-90.56-90.56c-23.176-23.176-55.194-37.511-90.56-37.511-70.732 0-128.071 57.339-128.071 128.071 0 35.366 14.335 67.384 37.511 90.56v0l181.12 180.8c23.152 23.098 55.108 37.381 90.4 37.381s67.248-14.283 90.402-37.383l-0.002 0.002 45.44 45.44c-34.753 34.79-82.783 56.311-135.84 56.311s-101.087-21.521-135.838-56.309l-0.002-0.002z" />
<glyph unicode="&#xe96a;" glyph-name="list-filled" data-tags="list-filled" d="M640 896v-224h224l-224 224zM864 608h-224c-35.346 0-64 28.654-64 64v0 224h-352c-35.346 0-64-28.654-64-64v0-768c0-35.346 28.654-64 64-64v0h576c35.346 0 64 28.654 64 64v0 544zM384 160h-64v64h64zM384 320h-64v64h64zM384 480h-64v64h64zM704 160h-256v64h256zM704 320h-256v64h256zM704 480h-256v64h256z" />
<glyph unicode="&#xe96b;" glyph-name="list-outlined" data-tags="list-outlined" d="M448 576h256v-64h-256v64zM320 576h64v-64h-64v64zM448 416h256v-64h-256v64zM320 416h64v-64h-64v64zM448 256h256v-64h-256v64zM320 256h64v-64h-64v64zM672 640h192l-256 256v-192c0-35.346 28.654-64 64-64v0zM800 64h-576v768h320v64h-320c-35.346 0-64-28.654-64-64v0-768c0-35.346 28.654-64 64-64v0h576c35.346 0 64 28.654 64 64v0 512h-64z" />
<glyph unicode="&#xe96c;" glyph-name="list-view-filled" data-tags="list-view-filled" d="M160 832c-35.346 0-64-28.654-64-64v0-64c0-35.346 28.654-64 64-64v0h64c35.346 0 64 28.654 64 64v0 64c0 35.346-28.654 64-64 64v0zM416 704h512v64h-512zM416 416h512v64h-512zM928 128h-512v64h512zM96 480c0 35.346 28.654 64 64 64v0h64c35.346 0 64-28.654 64-64v0-64c0-35.346-28.654-64-64-64v0h-64c-35.346 0-64 28.654-64 64v0zM160 256c-35.346 0-64-28.654-64-64v0-64c0-35.346 28.654-64 64-64v0h64c35.346 0 64 28.654 64 64v0 64c0 35.346-28.654 64-64 64v0z" />
<glyph unicode="&#xe96d;" glyph-name="list-view-outlined" data-tags="list-view-outlined" d="M416 768h512v-64h-512zM416 480h512v-64h-512zM416 192h512v-64h-512zM160 640h64c35.2 0 64 28.8 64 64v64c0 35.2-28.8 64-64 64h-64c-35.2 0-64-28.8-64-64v-64c0-35.2 28.8-64 64-64zM160 768h64v-64h-64v64zM227.2 256h-64c-35.2 0-64-28.8-64-64v-64c0-35.2 28.8-64 64-64h64c35.2 0 64 28.8 64 64v64c0 35.2-28.8 64-64 64zM227.2 128h-64v64h64v-64zM160 348.8h64c35.2 0 64 28.8 64 64v64c0 35.2-28.8 64-64 64h-64c-35.2 0-64-28.8-64-64v-64c0-35.2 28.8-64 64-64zM160 476.8h64v-64h-64v64z" />
<glyph unicode="&#xe96e;" glyph-name="loading" data-tags="loading" d="M585.92 890.24v-69.76c177.696-33.745 310.24-187.832 310.24-372.877 0-209.426-169.774-379.2-379.2-379.2s-379.2 169.774-379.2 379.2c0 185.045 132.544 339.132 307.873 372.502l2.367 0.375v69.76c-215.99-34.582-379.040-219.58-379.040-442.661 0-247.424 200.576-448 448-448s448 200.576 448 448c0 223.081-163.051 408.079-376.479 442.322l-2.561 0.339z" />
<glyph unicode="&#xe96f;" glyph-name="location-filled" data-tags="location-filled" d="M512 864c-176.731 0-320-143.269-320-320v0c0-224 320-512 320-512s320 288 320 512c0 176.731-143.269 320-320 320v0zM512 448c-53.019 0-96 42.981-96 96s42.981 96 96 96c53.019 0 96-42.981 96-96v0c0-53.019-42.981-96-96-96v0z" />
<glyph unicode="&#xe970;" glyph-name="location-outlined" data-tags="location-outlined" d="M512 672c-70.692 0-128-57.308-128-128s57.308-128 128-128c70.692 0 128 57.308 128 128v0c0 70.692-57.308 128-128 128v0zM512 480c-35.346 0-64 28.654-64 64s28.654 64 64 64c35.346 0 64-28.654 64-64v0c0-35.346-28.654-64-64-64v0zM512 864c-176.731 0-320-143.269-320-320v0c0-224 320-512 320-512s320 288 320 512c0 176.731-143.269 320-320 320v0zM512 121.92c-97.92 102.080-256 292.16-256 422.080 0 141.385 114.615 256 256 256s256-114.615 256-256v0c0-129.92-158.080-320-256-422.080z" />
<glyph unicode="&#xe971;" glyph-name="login" data-tags="login" d="M896 864h-480c-35.346 0-64-28.654-64-64v0-256h64v256h480v-704h-480v256h-64v-256c0-35.346 28.654-64 64-64v0h480c35.346 0 64 28.654 64 64v0 704c0 35.346-28.654 64-64 64v0zM512 288l224 160-224 160v-128h-448v-64h448v-128z" />
<glyph unicode="&#xe972;" glyph-name="logout" data-tags="logout" d="M576 96h-448v704h448v-256h64v256c0 35.346-28.654 64-64 64v0h-448c-35.346 0-64-28.654-64-64v0-704c0-35.346 28.654-64 64-64v0h448c35.346 0 64 28.654 64 64v0 256h-64zM960 448l-224 160v-128h-448v-64h448v-128l224 160z" />
<glyph unicode="&#xe973;" glyph-name="lucky-kuji-filled" data-tags="lucky-kuji-filled" d="M280.32 430.72l139.52 59.84 96-96c6.388-6.388 15.213-10.339 24.96-10.339 19.495 0 35.299 15.804 35.299 35.299 0 9.747-3.951 18.572-10.339 24.96l-96 96 59.84 139.52-216.64 216-61.12-142.72-53.12 53.44-45.44-45.44 53.44-53.12-142.72-61.12zM336.96 772.48l108.8-108.8-29.76-69.76-109.12 110.080zM256 653.12l110.080-109.12-69.76-29.76-108.8 108.8zM544 832c-24.889-0.182-49.109-2.503-72.644-6.787l2.564 0.387 128-128c132.296-27.815 230.195-143.544 230.195-282.139 0-159.058-128.942-288-288-288-138.977 0-254.962 98.439-282.033 229.395l-0.322 1.864-128 128c-3.852-21.262-6.055-45.734-6.055-70.72 0-229.75 186.25-416 416-416s416 186.25 416 416c0 229.647-186.081 415.832-415.688 416h-0.016zM540.8 320c-27.476 0.059-52.344 11.171-70.405 29.125l-63.995 63.995-83.2-33.6c17.388-107.887 109.835-189.295 221.295-189.295 123.712 0 224 100.288 224 224 0 111.46-81.408 203.907-188.010 221.124l-1.285 0.171-34.88-81.92 64-64c17.865-17.985 28.906-42.767 28.906-70.128 0-53.875-42.81-97.752-96.269-99.468l-0.158-0.004z" />
<glyph unicode="&#xe974;" glyph-name="lucky-kuji-outlined" data-tags="lucky-kuji-outlined" d="M280.32 430.72l139.52 59.84 96-96c6.388-6.388 15.213-10.339 24.96-10.339 19.495 0 35.299 15.804 35.299 35.299 0 9.747-3.951 18.572-10.339 24.96l-96 96 59.84 139.52-216.64 216-61.12-142.72-53.12 53.44-45.44-45.44 53.44-53.12-142.72-61.12zM336.96 772.48l108.8-108.8-29.76-69.76-109.12 110.080zM256 653.12l110.080-109.12-69.76-29.76-108.8 108.8zM544 832c-24.889-0.182-49.109-2.503-72.644-6.787l2.564 0.387 58.24-57.6h11.84c194.404 0 352-157.596 352-352s-157.596-352-352-352c-194.404 0-352 157.596-352 352v0c0 3.84 0 8 0 11.84l-57.6 58.24c-3.783-21.070-5.945-45.322-5.945-70.080 0-229.75 186.25-416 416-416s416 186.25 416 416c0 229.75-186.25 416-416 416-0.16 0-0.32 0-0.48 0h0.025zM544 256c-0.091 0-0.2 0-0.308 0-84.876 0-154.316 66.088-159.668 149.612l-0.024 0.468-61.76-26.56c17.388-107.887 109.835-189.295 221.295-189.295 123.712 0 224 100.288 224 224 0 111.46-81.408 203.907-188.010 221.124l-1.285 0.171-24.32-59.52c86.248-2.758 155.117-73.336 155.117-160 0-88.408-71.669-160.077-160.077-160.077-1.744 0-3.482 0.028-5.213 0.083l0.253-0.006z" />
<glyph unicode="&#xe975;" glyph-name="mail-filled" data-tags="mail-filled" d="M579.84 352c-17.368-17.347-41.351-28.076-67.84-28.076s-50.472 10.728-67.841 28.077l-348.159 348.159v-540.16c0-35.346 28.654-64 64-64v0h704c35.346 0 64 28.654 64 64v0 540.16zM534.72 397.12l378.88 378.88c-11.753 14.593-29.58 23.884-49.58 24h-704.020c-20.020-0.116-37.847-9.407-49.504-23.877l-0.096-0.123 378.88-378.88c5.8-5.846 13.837-9.466 22.72-9.466s16.92 3.619 22.718 9.463l0.002 0.002z" />
<glyph unicode="&#xe976;" glyph-name="mail-outlined" data-tags="mail-outlined" d="M444.16 406.72c17.368-17.347 41.351-28.076 67.84-28.076s50.472 10.728 67.841 28.077l345.919 345.599c-7.461 27.621-32.267 47.621-61.753 47.68h-704.007c-29.493-0.059-54.299-20.059-61.657-47.232l-0.103-0.448 7.040-7.040zM818.88 736l-284.16-284.16c-5.8-5.846-13.837-9.466-22.72-9.466s-16.92 3.619-22.718 9.463l-284.162 284.162zM864 600.32v-440.32h-704v440.32l-64 64v-504.32c0-35.346 28.654-64 64-64v0h704c35.346 0 64 28.654 64 64v0 504.32z" />
<glyph unicode="&#xe977;" glyph-name="map-filled" data-tags="map-filled" d="M64 588.8v-448c-0.003-0.218-0.004-0.475-0.004-0.733 0-28.845 19.082-53.232 45.311-61.228l0.453-0.119 210.24-64v583.68l-173.76 52.48c-5.461 1.685-11.739 2.655-18.244 2.655-35.346 0-64-28.654-64-64 0-0.259 0.002-0.517 0.005-0.775v0.039zM736 229.44l-45.12 45.44c-4.48 4.16-11.2 10.88-18.88 19.2v-211.52l171.84-57.92c6.018-2.066 12.951-3.259 20.164-3.259 35.346 0 64 28.654 64 64 0 0.246-0.001 0.492-0.004 0.737v-0.037 361.92c-46.486-64.032-94.68-120.449-146.914-172.834l0.034 0.034zM384 576v-576l224 81.28v284.16c-61.513 67.92-111.59 147.6-146.313 235.046l-1.847 5.274zM960 672c0 123.712-100.288 224-224 224s-224-100.288-224-224v0c0-128 224-352 224-352s224 224 224 352zM656 672c0 44.183 35.817 80 80 80s80-35.817 80-80c0-44.183-35.817-80-80-80v0c-44.183 0-80 35.817-80 80v0z" />
<glyph unicode="&#xe978;" glyph-name="map-outlined" data-tags="map-outlined" d="M864 85.44l-182.4 61.44c-3.2 0-6.72 1.6-9.92 2.56v144.64c-16.32 16.96-39.040 41.6-64 71.36v-216.64c-3.84 0-8-1.92-11.84-3.52l-179.84-68.48v448l10.88 3.2 56.32 21.12c-8.418 16.314-16.547 35.792-23.169 55.955l-0.831 2.925-55.040-20.8c-6.46-2.634-13.955-4.163-21.807-4.163-0.208 0-0.416 0.001-0.624 0.003h0.032c-6.64 0.046-13.018 1.095-19.013 3.005l0.453-0.125-216.96 64.96c-5.446 1.811-11.717 2.863-18.232 2.88h-0.008c-35.346 0-64-28.654-64-64v0-448c-0.003-0.218-0.004-0.475-0.004-0.733 0-28.845 19.082-53.232 45.311-61.228l0.453-0.119 253.44-76.8c5.542-1.785 11.92-2.834 18.537-2.88h0.023c0.176-0.002 0.384-0.003 0.593-0.003 7.852 0 15.348 1.529 22.204 4.305l-0.397-0.142 214.72 81.28c6.46 2.634 13.955 4.163 21.807 4.163 0.208 0 0.416-0.001 0.624-0.003h-0.032c0.158 0.001 0.344 0.002 0.531 0.002 7.023 0 13.773-1.172 20.063-3.332l-0.434 0.13 182.4-61.44c5.791-2.231 12.492-3.524 19.494-3.524 0.234 0 0.468 0.001 0.702 0.004h-0.035c35.346 0 64 28.654 64 64v0 362.56c-21.12-29.76-43.2-57.6-64-82.24zM352 73.28l-224 68.48v448l216.96-65.92h7.36zM960 672c0 123.712-100.288 224-224 224s-224-100.288-224-224v0c0-128 224-352 224-352s224 224 224 352zM736 832c88.366 0 160-71.634 160-160v0c0-57.92-82.88-172.8-160-258.88-77.12 86.080-160 200.96-160 258.88 0 88.366 71.634 160 160 160v0zM816 672c0-44.183-35.817-80-80-80s-80 35.817-80 80c0 44.183 35.817 80 80 80s80-35.817 80-80z" />
<glyph unicode="&#xe979;" glyph-name="menu" data-tags="menu" d="M128 768h768v-64h-768v64zM128 480h768v-64h-768v64zM128 192h768v-64h-768v64z" />
<glyph unicode="&#xe97a;" glyph-name="minus" data-tags="minus" d="M128 480h768v-64h-768v64z" />
<glyph unicode="&#xe97b;" glyph-name="mobile-filled" data-tags="mobile-filled" d="M704 800h-352v64c0 17.673-14.327 32-32 32s-32-14.327-32-32v0-70.080c-37.422-13.51-63.738-48.608-64-89.888v-608.032c0-53.019 42.981-96 96-96v0h384c53.019 0 96 42.981 96 96v0 608c0 53.019-42.981 96-96 96v0zM384 640h256v-192h-256zM416 128h-64v64h64zM416 256h-64v64h64zM544 128h-64v64h64zM544 256h-64v64h64zM672 128h-64v64h64zM672 256h-64v64h64z" />
<glyph unicode="&#xe97c;" glyph-name="mobile-outlined" data-tags="mobile-outlined" d="M704 800h-352v64c0 17.673-14.327 32-32 32s-32-14.327-32-32v0-70.080c-37.422-13.51-63.738-48.608-64-89.888v-608.032c0-53.019 42.981-96 96-96v0h384c53.019 0 96 42.981 96 96v0 608c0 53.019-42.981 96-96 96v0zM736 96c0-17.673-14.327-32-32-32v0h-384c-17.673 0-32 14.327-32 32v0 608c0 17.673 14.327 32 32 32v0h384c17.673 0 32-14.327 32-32v0zM352 384h320v288h-320zM416 608h192v-160h-192zM352 320h64v-64h-64v64zM480 320h64v-64h-64v64zM352 192h64v-64h-64v64zM480 192h64v-64h-64v64zM608 320h64v-64h-64v64zM608 192h64v-64h-64v64z" />
<glyph unicode="&#xe97d;" glyph-name="movie-filled" data-tags="movie-filled" d="M896 832h-768c-35.346 0-64-28.654-64-64v0-640c0-35.346 28.654-64 64-64v0h768c35.346 0 64 28.654 64 64v0 640c0 35.346-28.654 64-64 64v0zM384 704h96v-64h-96zM320 192h-96v64h96zM320 640h-96v64h96zM480 192h-96v64h96zM640 192h-96v64h96zM416 320v256l224-128zM640 640h-96v64h96zM800 192h-96v64h96zM800 640h-96v64h96z" />
<glyph unicode="&#xe97e;" glyph-name="movie-outlined" data-tags="movie-outlined" d="M896 832h-768c-35.346 0-64-28.654-64-64v0-640c0-35.346 28.654-64 64-64v0h768c35.346 0 64 28.654 64 64v0 640c0 35.346-28.654 64-64 64v0zM896 128h-768v640h768zM224 704h96v-64h-96v64zM224 256h96v-64h-96v64zM384 704h96v-64h-96v64zM384 256h96v-64h-96v64zM544 704h96v-64h-96v64zM544 256h96v-64h-96v64zM704 704h96v-64h-96v64zM704 256h96v-64h-96v64zM416 320l224 128-224 128v-256z" />
<glyph unicode="&#xe97f;" glyph-name="my-page-filled" data-tags="my-page-filled" d="M947.52 53.44c-3.14 27.731-7.751 52.406-13.952 76.442l0.832-3.802c-2.985 12.802-9.657 23.738-18.822 31.949l-0.058 0.051c-35.881 29.235-77.224 53.711-121.944 71.524l-3.176 1.116c-15.228 6.386-26.537 19.486-30.331 35.492l-0.069 0.348c-0.752 3.247-1.184 6.976-1.184 10.806 0 13.302 5.203 25.389 13.685 34.337l-0.021-0.022c33.92 36.16 42.56 56.96 42.56 144.96 0 96-50.88 152-138.88 152s-138.88-55.36-138.88-152c0-88 8.32-108.8 42.24-144.96 8.493-8.84 13.723-20.87 13.723-34.121 0-3.9-0.453-7.694-1.309-11.333l0.066 0.334c-3.76-16.404-15.108-29.544-30.064-35.717l-0.336-0.123c-47.884-19.010-89.217-43.478-126.001-73.333l0.881 0.693c-9.223-8.262-15.895-19.198-18.798-31.586l-0.082-0.414c-5.162-19.919-9.767-44.585-12.831-69.727l-0.289-2.913c-0.21-1.687-0.33-3.639-0.33-5.62 0-25.049 19.187-45.616 43.666-47.807l0.184-0.013h451.2c0.19-0.003 0.415-0.004 0.64-0.004 26.51 0 48 21.49 48 48 0 0.002 0 0.003 0 0.005v0c0.011 0.303 0.018 0.66 0.018 1.018 0 1.561-0.123 3.093-0.359 4.588l0.022-0.165zM473.28 456c0 131.2 79.36 216 202.88 216 9.881-0.060 19.553-0.64 29.075-1.713l-1.235 0.113v161.6c0 35.346-28.654 64-64 64v0h-512c-35.346 0-64-28.654-64-64v0-576c0-35.346 28.654-64 64-64v0h253.12c4.338 5.079 8.835 9.678 13.622 13.959l0.138 0.121c35.993 29.633 77.11 55.052 121.432 74.521l3.368 1.319c-39.68 47.68-46.4 88.96-46.4 174.080zM192 736h320v-64h-320zM320 416h-128v64h128zM416 544h-224v64h224z" />
<glyph unicode="&#xe980;" glyph-name="my-page-outlined" data-tags="my-page-outlined" d="M928 192c-39.216 36.264-85.247 65.863-135.853 86.583l-3.027 1.097c-5.8 2.388-9.809 7.995-9.809 14.539 0 2.142 0.43 4.184 1.207 6.044l-0.038-0.104c0.849 1.845 1.922 3.43 3.21 4.811l-0.010-0.011c38.72 41.92 47.68 71.36 47.68 160 0.64 111.040-63.36 175.040-159.36 175.040s-160-64-160-176c0-85.12 8.96-116.48 48-160 2.828-2.884 4.574-6.838 4.574-11.2s-1.746-8.316-4.576-11.203l0.003 0.003c-1.315-1.283-2.923-2.272-4.714-2.856l-0.086-0.024c-53.725-21.496-99.869-50.789-139.551-87.037l0.351 0.317c-20.8-20.8-28.16-73.28-32-124.16-0.076-1.17-0.12-2.537-0.12-3.914 0-34.263 26.924-62.237 60.769-63.92l0.151-0.006h451.2c35.346 0 64 28.654 64 64v0 3.52c-2.56 51.2-9.92 103.68-32 124.48zM448 64c-0.045 1.702-0.070 3.705-0.070 5.715 0 28.013 4.951 54.869 14.026 79.742l-0.516-1.617c33.135 29.725 71.813 54.123 114.164 71.371l2.636 0.949c29.155 12.378 49.231 40.768 49.231 73.846 0 10.992-2.217 21.466-6.228 31l0.197-0.526c-3.809 9.016-8.876 16.75-15.083 23.407l0.043-0.047c-23.040 25.28-32 38.080-32 115.84 0 51.2 16.64 112 96 112s96-60.8 96-112c0-78.72-6.72-89.6-32-115.52-13.214-14.182-21.325-33.271-21.325-54.254 0-23.204 9.919-44.092 25.748-58.654l0.057-0.052c6.636-6.308 14.501-11.398 23.188-14.867l0.492-0.173c44.837-18.335 83.39-42.716 116.864-72.658l-0.384 0.338c10.408-24.768 16.607-53.532 16.959-83.702l0.001-0.138zM192 736h352v-64h-352v64zM192 608h256v-64h-256v64zM192 480h160v-64h-160v64zM128 832h512v-128h64v128c0 35.346-28.654 64-64 64v0h-512c-35.346 0-64-28.654-64-64v0-576c0-35.346 28.654-64 64-64v0h192v64h-192z" />
<glyph unicode="&#xe981;" glyph-name="new-user" data-tags="new-user" d="M256 864c-35.346 0-64-28.654-64-64v0-539.84c0.266-23.292 12.933-43.566 31.698-54.556l0.302-0.164 224-135.040v74.56l-192 115.2v539.84l192-115.2v74.56l-160 96c-9.174 5.412-20.211 8.618-31.994 8.64h-0.006zM768 864c-11.859-0.231-22.873-3.653-32.277-9.439l0.277 0.159-224-133.76v-688.96l288 173.44c19.067 11.154 31.734 31.428 32 54.682v539.878c0 35.346-28.654 64-64 64v0z" />
<glyph unicode="&#xe982;" glyph-name="new-window-filled" data-tags="new-window-filled" d="M192 608h-64c-35.346 0-64-28.654-64-64v0-416c0-35.346 28.654-64 64-64v0h576c35.346 0 64 28.654 64 64v0 96h-576zM256 352c0-35.346 28.654-64 64-64v0h576c35.346 0 64 28.654 64 64v0 288h-704zM896 832h-576c-35.346 0-64-28.654-64-64v0-64h704v64c0 35.346-28.654 64-64 64v0z" />
<glyph unicode="&#xe983;" glyph-name="new-window-outlined" data-tags="new-window-outlined" d="M704 128h-576v416h64v64h-64c-35.346 0-64-28.654-64-64v0-416c0-35.346 28.654-64 64-64v0h576c35.346 0 64 28.654 64 64v0 96h-64zM896 832h-576c-35.346 0-64-28.654-64-64v0-416c0-35.346 28.654-64 64-64v0h576c35.346 0 64 28.654 64 64v0 416c0 35.346-28.654 64-64 64v0zM896 352h-576v288h576zM896 704h-576v64h576z" />
<glyph unicode="&#xe984;" glyph-name="news-filled" data-tags="news-filled" d="M928 704v-576c0-53.019-42.981-96-96-96v0h-640c-53.019 0-96 42.981-96 96v0 736h640v-736h64v576zM224 576h384v64h-384zM224 448h384v64h-384zM224 320h384v64h-384z" />
<glyph unicode="&#xe985;" glyph-name="news-outlined" data-tags="news-outlined" d="M256 639.68h352v-64h-352v64zM256 511.68h352v-64h-352v64zM256 383.68h352v-64h-352v64zM800 32h-576c-70.692 0-128 57.308-128 128v0 704h672v-128h160v-576c0-70.692-57.308-128-128-128v0zM160 800v-640c0-35.346 28.654-64 64-64v0h576c35.346 0 64 28.654 64 64v0 512h-96v-512h-64v640z" />
<glyph unicode="&#xe986;" glyph-name="notice-generic-filled" data-tags="notice-generic-filled" d="M512 0c70.692 0 128 57.308 128 128v0h-256c0-70.692 57.308-128 128-128v0zM832 320v256c0 176.731-143.269 320-320 320s-320-143.269-320-320v0-256c0-35.346-28.654-64-64-64v0-64h768v64c-35.346 0-64 28.654-64 64v0z" />
<glyph unicode="&#xe987;" glyph-name="notice-generic-outlined" data-tags="notice-generic-outlined" d="M512 64c-35.346 0-64 28.654-64 64v0h-64c0-70.692 57.308-128 128-128s128 57.308 128 128v0h-64c0-35.346-28.654-64-64-64v0zM832 320v256c0 176.731-143.269 320-320 320s-320-143.269-320-320v0-256c0-35.346-28.654-64-64-64v0-64h768v64c-35.346 0-64 28.654-64 64v0zM238.72 256c10.825 18.349 17.237 40.421 17.28 63.988v256.012c0 141.385 114.615 256 256 256s256-114.615 256-256v0-256c0.043-23.579 6.455-45.651 17.606-64.6l-0.326 0.6z" />
<glyph unicode="&#xe988;" glyph-name="notice-user-filled" data-tags="notice-user-filled" d="M864 864h-704c-35.346 0-64-28.654-64-64v0-576c0-35.346 28.654-64 64-64v0h192l160-160 160 160h192c35.346 0 64 28.654 64 64v0 576c0 35.346-28.654 64-64 64v0zM480 736h64v-288h-64zM512 288c-26.51 0-48 21.49-48 48s21.49 48 48 48c26.51 0 48-21.49 48-48v0c0-26.51-21.49-48-48-48v0z" />
<glyph unicode="&#xe989;" glyph-name="notice-user-outlined" data-tags="notice-user-outlined" d="M864 864h-704c-35.346 0-64-28.654-64-64v0-576c0-35.346 28.654-64 64-64v0h192l160-160 160 160h192c35.346 0 64 28.654 64 64v0 576c0 35.346-28.654 64-64 64v0zM864 224h-218.56l-133.44-133.44-133.44 133.44h-218.56v576h704zM480 736h64v-288h-64v288zM560 336c0-26.51-21.49-48-48-48s-48 21.49-48 48c0 26.51 21.49 48 48 48s48-21.49 48-48z" />
<glyph unicode="&#xe98a;" glyph-name="paint-filled" data-tags="paint-filled" d="M950.72 137.6c-15.68 32-86.72 150.4-86.72 150.4s-71.040-118.4-86.72-150.4c-5.751-12.201-9.158-26.488-9.28-41.557v-0.043c0-53.019 42.981-96 96-96s96 42.981 96 96v0c-0.122 15.112-3.529 29.399-9.542 42.221l0.262-0.621zM483.2 864l-41.92-42.56-36.16 38.4c-22.439 22.439-53.439 36.318-87.68 36.318-68.482 0-123.998-55.516-123.998-123.998 0-34.241 13.879-65.241 36.318-87.68l37.12-37.12-165.76-167.36c-22.814-23.103-36.904-54.866-36.904-89.92s14.091-66.817 36.918-89.933l-0.013 0.013 201.28-200.96c22.911-23.103 54.665-37.405 89.76-37.405s66.849 14.302 89.751 37.396l0.009 0.009 382.080 383.36zM480 512c-35.346 0-64 28.654-64 64v0c-0.241 1.873-0.379 4.041-0.379 6.24s0.138 4.367 0.405 6.493l-0.026-0.253-103.040 104.64-38.080 36.48c-10.804 10.873-17.481 25.857-17.481 42.4s6.678 31.527 17.484 42.403l-0.003-0.003c10.735 10.845 25.623 17.56 42.080 17.56s31.345-6.715 42.075-17.555l0.005-0.005 37.12-38.72-38.080-37.44 101.76-101.76c5.998 2.204 12.924 3.492 20.148 3.52h0.012c35.346 0 64-28.654 64-64s-28.654-64-64-64v0z" />
<glyph unicode="&#xe98b;" glyph-name="paint-outlined" data-tags="paint-outlined" d="M950.72 137.6c-15.68 32-86.72 150.4-86.72 150.4s-71.040-118.4-86.72-150.4c-5.751-12.201-9.158-26.488-9.28-41.557v-0.043c0-53.019 42.981-96 96-96s96 42.981 96 96v0c-0.122 15.112-3.529 29.399-9.542 42.221l0.262-0.621zM864 64c-17.673 0-32 14.327-32 32v0c-0.003 0.143-0.004 0.312-0.004 0.481 0 4.848 1.185 9.419 3.28 13.44l-0.076-0.161c4.48 9.28 15.36 29.12 28.8 52.16 13.44-23.040 24.32-42.88 28.8-52.16 2.019-3.86 3.204-8.431 3.204-13.279 0-0.169-0.001-0.338-0.004-0.506v0.025c0-17.673-14.327-32-32-32v0zM483.2 864l-41.92-42.56-36.16 38.4c-22.439 22.439-53.439 36.318-87.68 36.318-68.482 0-123.998-55.516-123.998-123.998 0-34.241 13.879-65.241 36.318-87.68l37.12-37.12-165.76-167.36c-22.814-23.103-36.904-54.866-36.904-89.92s14.091-66.817 36.918-89.933l-0.013 0.013 201.28-200.96c22.911-23.103 54.665-37.405 89.76-37.405s66.849 14.302 89.751 37.396l0.009 0.009 382.080 383.36zM274.88 814.4c10.735 10.845 25.623 17.56 42.080 17.56s31.345-6.715 42.075-17.555l0.005-0.005 37.12-38.72-83.84-83.2-37.44 37.12c-10.804 10.873-17.481 25.857-17.481 42.4s6.678 31.527 17.484 42.403l-0.003-0.003zM436.8 145.92c-11.517-11.219-27.271-18.139-44.64-18.139s-33.123 6.919-44.654 18.152l0.014-0.013-200.96 200.96c-11.219 11.517-18.139 27.271-18.139 44.64s6.919 33.123 18.152 44.654l-0.013-0.014 165.76 165.76 73.92-73.92c-1.326-4.772-2.137-10.269-2.239-15.939l-0.001-0.061c0-35.346 28.654-64 64-64s64 28.654 64 64c0 35.346-28.654 64-64 64v0c-6.064-0.047-11.894-0.979-17.388-2.674l0.428 0.114-73.6 73.92 125.76 125.44 290.24-290.24z" />
<glyph unicode="&#xe98c;" glyph-name="pdf-filled" data-tags="pdf-filled" d="M672 896v-224h224l-224 224zM512 467.2h-19.2v-134.4h19.2c28.277 0 51.2 22.923 51.2 51.2v0 32c0 28.277-22.923 51.2-51.2 51.2v0zM342.4 467.2h-41.6v-57.6h41.6c15.906 0 28.8 12.894 28.8 28.8s-12.894 28.8-28.8 28.8v0zM608 672v224h-416c-35.346 0-64-28.654-64-64v0-768c0-35.346 28.654-64 64-64v0h640c35.346 0 64 28.654 64 64v0 544h-224c-35.346 0-64 28.654-64 64v0zM342.4 364.8h-41.6v-76.8h-44.8v224h86.4c40.648 0 73.6-32.952 73.6-73.6s-32.952-73.6-73.6-73.6v0zM608 384c0-53.019-42.981-96-96-96v0h-64v224h64c53.019 0 96-42.981 96-96v0zM768 512v-44.8h-83.2v-51.2h70.4v-44.8h-70.4v-83.2h-44.8v224h128z" />
<glyph unicode="&#xe98d;" glyph-name="pdf-outlined" data-tags="pdf-outlined" d="M832 64h-640v768h384v64h-384c-35.346 0-64-28.654-64-64v0-768c0-35.346 28.654-64 64-64v0h640c35.346 0 64 28.654 64 64v0 512h-64zM704 640h192l-256 256v-192c0-35.346 28.654-64 64-64v0zM256 512v-224h44.8v76.8h41.6c40.648 0 73.6 32.952 73.6 73.6s-32.952 73.6-73.6 73.6v0zM371.2 438.4c0-15.906-12.894-28.8-28.8-28.8v0h-41.6v57.6h41.6c15.906 0 28.8-12.894 28.8-28.8v0zM448 512v-224h64c53.019 0 96 42.981 96 96v0 32c0 53.019-42.981 96-96 96v0zM563.2 416v-32c0-28.277-22.923-51.2-51.2-51.2v0h-19.2v134.4h19.2c28.277 0 51.2-22.923 51.2-51.2v0zM684.8 371.2h70.4v44.8h-70.4v51.2h83.2v44.8h-128v-224h44.8v83.2z" />
<glyph unicode="&#xe98e;" glyph-name="phone-filled" data-tags="phone-filled" d="M939.2 195.52l-147.84 147.84c-12.856 12.86-30.619 20.814-50.24 20.814s-37.384-7.954-50.24-20.814l-76.48-76.48c-6.287-6.464-15.068-10.475-24.785-10.475-4.92 0-9.6 1.028-13.837 2.882l0.222-0.087c-60.099 23.799-111.624 56.93-155.45 98.153l0.25-0.233c-40.84 43.503-73.861 94.918-96.453 151.618l-1.147 3.262c-1.706 3.953-2.699 8.555-2.699 13.389 0 9.67 3.972 18.413 10.373 24.686l76.486 76.486c12.86 12.856 20.814 30.619 20.814 50.24s-7.954 37.384-20.814 50.24v0l-147.84 148.16c-12.807 12.576-30.377 20.339-49.76 20.339s-36.953-7.763-49.771-20.349l0.011 0.010-75.2-75.2c-12.859-13-20.802-30.884-20.802-50.624 0-0.202 0.001-0.405 0.003-0.607v0.031c-0.201-6.387-0.316-13.898-0.316-21.436 0-401.887 325.793-727.68 727.68-727.68 7.538 0 15.049 0.115 22.532 0.342l-1.096-0.026c0.171-0.001 0.373-0.002 0.576-0.002 19.74 0 37.624 7.944 50.631 20.809l75.194 75.194c12.576 12.807 20.339 30.377 20.339 49.76s-7.763 36.953-20.349 49.771l0.010-0.011z" />
<glyph unicode="&#xe98f;" glyph-name="phone-outlined" data-tags="phone-outlined" d="M939.2 195.52l-147.84 147.84c-12.856 12.86-30.619 20.814-50.24 20.814s-37.384-7.954-50.24-20.814l-76.48-76.48c-6.371-6.449-15.188-10.471-24.943-10.56h-0.017c-0.051 0-0.111 0-0.172 0-4.81 0-9.373 1.061-13.466 2.963l0.197-0.082c-60.099 23.799-111.624 56.93-155.45 98.153l0.25-0.233c-40.84 43.503-73.861 94.918-96.453 151.618l-1.147 3.262c-1.706 3.953-2.699 8.555-2.699 13.389 0 9.67 3.972 18.413 10.373 24.686l76.486 76.486c12.86 12.856 20.814 30.619 20.814 50.24s-7.954 37.384-20.814 50.24v0l-147.84 148.16c-12.807 12.576-30.377 20.339-49.76 20.339s-36.953-7.763-49.771-20.349l0.011 0.010-75.2-75.2c-12.859-13-20.802-30.884-20.802-50.624 0-0.202 0.001-0.405 0.003-0.607v0.031c-0.201-6.387-0.316-13.898-0.316-21.436 0-401.887 325.793-727.68 727.68-727.68 7.538 0 15.049 0.115 22.532 0.342l-1.096-0.026h1.6c19.38 0.214 36.872 8.119 49.602 20.802l75.198 75.198c12.576 12.807 20.339 30.377 20.339 49.76s-7.763 36.953-20.349 49.771l0.010-0.011zM894.080 140.48l-74.56-74.56c-1.259-1.192-2.963-1.926-4.838-1.926-0.099 0-0.198 0.002-0.296 0.006h-8.946c-5.125-0.144-11.156-0.226-17.206-0.226-182.187 0-347.037 74.233-465.952 194.102l-0.043 0.043c-120.104 118.988-194.466 283.966-194.466 466.312 0 6.051 0.082 12.084 0.245 18.096l-0.019-0.887v8.64c-0.005 0.105-0.008 0.228-0.008 0.351 0 1.956 0.731 3.741 1.935 5.097l-0.007-0.008 74.56 74.56c1.254 1.171 2.943 1.89 4.8 1.89s3.546-0.719 4.804-1.894l148.156-148.156c1.171-1.254 1.89-2.943 1.89-4.8s-0.719-3.546-1.894-4.804l-76.476-76.476c-18.078-17.875-29.273-42.678-29.273-70.096 0-13.618 2.762-26.592 7.757-38.39l-0.243 0.646c27.366-68.234 65.12-126.739 111.955-176.616l-0.275 0.296c49.581-46.56 108.086-84.314 172.58-110.346l3.74-1.334c11.042-4.831 23.908-7.653 37.43-7.68h0.010c27.538 0.037 52.44 11.288 70.391 29.431l0.009 0.009 76.16 76.48c1.254 1.171 2.943 1.89 4.8 1.89s3.546-0.719 4.804-1.894l148.156-148.156c1.171-1.254 1.89-2.943 1.89-4.8s-0.719-3.546-1.894-4.804l0.004 0.004z" />
<glyph unicode="&#xe990;" glyph-name="photograph-filled" data-tags="photograph-filled" d="M896 736h-160l-46.4 92.48c-10.711 21.211-32.324 35.506-57.278 35.52h-240.642c-24.956-0.014-46.569-14.309-57.112-35.154l-0.168-0.366-46.4-92.48h-160c-35.346 0-64-28.654-64-64v0-576c0-35.346 28.654-64 64-64v0h768c35.346 0 64 28.654 64 64v0 576c0 35.346-28.654 64-64 64v0zM512 160c-132.548 0-240 107.452-240 240s107.452 240 240 240c132.548 0 240-107.452 240-240v0c0-132.548-107.452-240-240-240v0zM688 400c0-97.202-78.798-176-176-176s-176 78.798-176 176c0 97.202 78.798 176 176 176s176-78.798 176-176z" />
<glyph unicode="&#xe991;" glyph-name="photograph-outlined" data-tags="photograph-outlined" d="M896 736h-192l-46.4 92.48c-10.711 21.211-32.324 35.506-57.278 35.52h-176.642c-24.956-0.014-46.569-14.309-57.112-35.154l-0.168-0.366-46.4-92.48h-192c-35.346 0-64-28.654-64-64v0-576c0-35.346 28.654-64 64-64v0h768c35.346 0 64 28.654 64 64v0 576c0 35.346-28.654 64-64 64v0zM896 96h-768v576h231.68l64 128h176.64l64-128h231.68zM272 400c0-132.548 107.452-240 240-240s240 107.452 240 240c0 132.548-107.452 240-240 240v0c-132.548 0-240-107.452-240-240v0zM688 400c0-97.202-78.798-176-176-176s-176 78.798-176 176c0 97.202 78.798 176 176 176v0c97.129-0.182 175.818-78.871 176-175.983v-0.017z" />
<glyph unicode="&#xe992;" glyph-name="pin-filled" data-tags="pin-filled" d="M876.48 604.48l-208 208c-11.94 11.993-28.463 19.415-46.72 19.415s-34.78-7.422-46.718-19.413l-7.042-7.042c-11.844-11.325-19.206-27.251-19.206-44.897 0-0.303 0.002-0.606 0.007-0.909l-0.001 0.046c0-25.28-8.64-71.040-66.56-128s-152.64-50.56-201.6-38.080c-4.867 1.327-10.454 2.090-16.22 2.090-18.138 0-34.514-7.545-46.159-19.668l-0.020-0.021-6.72-6.72c-11.993-11.94-19.415-28.463-19.415-46.72s7.422-34.78 19.413-46.718l0.002-0.002 327.040-328.32c11.991-12.012 28.568-19.443 46.88-19.443s34.889 7.431 46.879 19.442l6.721 6.721c12.144 11.666 19.69 28.042 19.69 46.18 0 5.766-0.762 11.354-2.192 16.668l0.103-0.448c-12.8 48.96-24.32 139.2 37.76 201.6s103.68 67.2 128 66.24c0.019 0 0.041 0 0.063 0 18.055 0 34.364 7.477 46 19.502l0.017 0.018 6.72 7.040c12.38 11.999 20.064 28.78 20.064 47.357 0 17.942-7.168 34.209-18.796 46.095l0.012-0.012zM128 128v-64h64l169.92 169.92-64 64-169.92-169.92z" />
<glyph unicode="&#xe993;" glyph-name="pin-outlined" data-tags="pin-outlined" d="M876.48 604.48l-208 208c-11.904 12.072-28.438 19.55-46.72 19.55s-34.816-7.478-46.713-19.542l-0.007-0.008-7.040-7.040c-11.844-11.325-19.206-27.251-19.206-44.897 0-0.303 0.002-0.606 0.007-0.909l-0.001 0.046c0-25.28-8.64-71.040-66.56-128-31.006-29.827-73.221-48.198-119.726-48.198-2.91 0-5.804 0.072-8.679 0.214l0.405-0.016c-26.695 0.19-52.464 3.798-77.003 10.407l2.123-0.487c-4.706 1.214-10.11 1.913-15.676 1.92h-0.004c-17.791-0.461-33.775-7.833-45.439-19.519l-6.721-6.721c-11.993-11.94-19.415-28.463-19.415-46.72s7.422-34.78 19.413-46.718l0.002-0.002 327.36-328.32c11.904-12.072 28.438-19.55 46.72-19.55s34.816 7.478 46.713 19.542l0.007 0.008 6.72 6.72c12.144 11.666 19.69 28.042 19.69 46.18 0 5.766-0.762 11.354-2.192 16.668l0.103-0.448c-12.8 48.96-24.32 139.2 37.76 201.6 55.68 55.68 100.16 66.56 126.4 66.56h4.48c17.493 0.438 33.178 7.83 44.463 19.502l0.017 0.018 6.72 7.040c11.898 11.924 19.255 28.383 19.255 46.56s-7.357 34.636-19.256 46.561l0.001-0.001zM832 556.16l-7.68-7.36h-2.88c-39.36 0-101.12-15.040-171.52-85.44-64-64-82.24-156.16-54.72-262.4 0.11-0.235 0.175-0.51 0.175-0.8s-0.064-0.565-0.18-0.812l0.005 0.012-6.72-6.72c-0.235-0.11-0.51-0.175-0.8-0.175s-0.565 0.064-0.812 0.18l0.012-0.005-330.88 327.36c-0.399 0.354-0.65 0.868-0.65 1.44s0.251 1.086 0.648 1.438l0.002 0.002 6.72 7.040c27.24-7.421 58.533-11.735 90.818-11.84h0.062c2.125-0.068 4.623-0.107 7.131-0.107 64.042 0 122.146 25.423 164.771 66.727l-0.062-0.060c71.68 71.68 86.080 134.080 85.44 174.4v0l9.28 8.96c0.407 0.415 0.973 0.672 1.6 0.672s1.193-0.257 1.6-0.672v0l208-208c0.863-0.324 1.467-1.143 1.467-2.102 0-0.699-0.32-1.324-0.823-1.735l-0.004-0.003zM128 128v-64h64l169.92 169.92-64 64-169.92-169.92z" />
<glyph unicode="&#xe994;" glyph-name="plane-filled" data-tags="plane-filled" d="M759.36 573.76l74.56 74.56c48.64 48.64 170.24 170.24 109.44 231.040s-182.4-60.8-231.040-109.44l-74.56-74.56-486.080 80.96c-3.34 0.572-7.187 0.899-11.111 0.899-19.014 0-36.235-7.678-48.732-20.102l-17.917-17.917c-6.112-6.229-9.884-14.772-9.884-24.197 0-12.049 6.166-22.658 15.515-28.843l0.129-0.080 333.12-215.68-96-96-137.92 33.6c-4.762 1.182-10.23 1.861-15.855 1.861-18.772 0-35.78-7.554-48.151-19.787l-15.674-15.674c-7.048-6.353-11.459-15.514-11.459-25.705 0-11.904 6.018-22.402 15.178-28.618l0.121-0.077 111.040-73.92 5.44 5.12c-1.911-6.621-3.009-14.226-3.009-22.087 0-21.635 8.322-41.326 21.939-56.048l-0.050 0.055c14.596-13.65 34.267-22.032 55.895-22.032 8.016 0 15.762 1.151 23.084 3.297l-0.579-0.146-5.44-5.44 72.64-109.76c6.296-9.257 16.781-15.258 28.667-15.258 9.551 0 18.197 3.874 24.452 10.137v0l15.68 15.68c12.227 12.364 19.781 29.372 19.781 48.145 0 5.626-0.678 11.093-1.958 16.325l0.097-0.469-34.24 137.28 96 96 215.68-333.12c6.265-9.478 16.874-15.644 28.923-15.644 9.424 0 17.967 3.772 24.202 9.889l17.915 17.915c12.421 12.494 20.099 29.715 20.099 48.729 0 3.924-0.327 7.771-0.955 11.516l0.056-0.405z" />
<glyph unicode="&#xe995;" glyph-name="plane-outlined" data-tags="plane-outlined" d="M937.28 873.28c-13.372 14.012-32.192 22.723-53.047 22.723-0.251 0-0.501-0.001-0.751-0.004h0.038c-68.48 0-149.76-81.6-187.52-119.040l-82.88-82.88-461.76 77.12c-1.677 0.148-3.629 0.233-5.6 0.233s-3.923-0.084-5.851-0.25l0.251 0.017c-0.073 0-0.16 0-0.247 0-18.761 0-35.751-7.579-48.076-19.843l0.003 0.003-17.92-17.6c-5.877-6.137-9.495-14.479-9.495-23.665 0-11.835 6.004-22.267 15.133-28.417l0.122-0.077 316.16-204.8-100.48-100.8-117.12 29.44c-4.762 1.182-10.23 1.861-15.855 1.861-18.772 0-35.78-7.554-48.151-19.787l-15.674-15.674c-5.975-6.203-9.655-14.652-9.655-23.961 0-11.404 5.523-21.518 14.041-27.812l0.094-0.067 104.64-69.76c-0.039-1.050-0.061-2.282-0.061-3.52 0-56.463 45.698-102.252 102.126-102.4h3.534l70.72-105.28c6.296-9.258 16.782-15.26 28.669-15.26 9.392 0 17.909 3.747 24.138 9.827l15.673 15.673c12.227 12.364 19.781 29.372 19.781 48.145 0 5.626-0.678 11.093-1.958 16.325l0.097-0.469-29.44 117.12 100.8 100.48 204.8-316.16c6.048-9.482 16.511-15.68 28.422-15.68 0.020 0 0.040 0 0.061 0h-0.003c0.065 0 0.141-0.001 0.217-0.001 9.401 0 17.918 3.789 24.105 9.923l-0.002-0.002 17.6 17.92c12.428 12.35 20.121 29.453 20.121 48.353 0 3.944-0.335 7.81-0.978 11.57l0.057-0.403-78.080 462.72 82.88 82.88c48.32 48.32 168.96 168 96.32 241.28zM713.28 594.56l-23.36-23.36 5.44-32 72.64-441.28-173.76 268.8-43.2 66.56-55.68-56-160-160c-6.961-6.961-16.578-11.267-27.2-11.267-21.245 0-38.467 17.222-38.467 38.467 0 10.622 4.306 20.239 11.267 27.2l160 160 56 55.68-66.56 43.2-268.48 173.44 472.64-78.72 105.92 105.92c67.52 66.88 115.2 100.8 143.040 100.8 0.233 0.019 0.504 0.031 0.778 0.031 3.191 0 6.030-1.507 7.845-3.848l0.017-0.023c4.48-4.48 21.12-32-96-151.040z" />
<glyph unicode="&#xe996;" glyph-name="plus" data-tags="plus" d="M896 480h-352v352h-64v-352h-352v-64h352v-352h64v352h352v64z" />
<glyph unicode="&#xe997;" glyph-name="point-filled" data-tags="point-filled" d="M512 896c-247.424 0-448-200.576-448-448s200.576-448 448-448c247.424 0 448 200.576 448 448v0c0 247.424-200.576 448-448 448v0zM545.6 375.040h-65.6v-121.92h-71.040v377.6h136.64c70.692 0 128-57.308 128-128s-57.308-128-128-128v0zM541.12 563.52h-61.12v-121.28h60.16c32.159 0.693 57.963 26.927 57.963 59.187 0 0.792-0.016 1.581-0.046 2.366l0.004-0.113c0.020 0.575 0.032 1.25 0.032 1.927 0 31.662-25.405 57.39-56.943 57.912l-0.049 0.001z" />
<glyph unicode="&#xe998;" glyph-name="point-outlined" data-tags="point-outlined" d="M545.6 630.72h-136.64v-377.6h71.040v121.92h64c70.692 0 128 57.308 128 128s-57.308 128-128 128v0zM541.12 442.24h-61.12v121.28h60.16c0.009 0 0.021 0 0.032 0 31.988 0 57.92-25.932 57.92-57.92 0-0.675-0.012-1.348-0.034-2.017l0.003 0.097c0.028-0.68 0.044-1.479 0.044-2.281 0-31.923-25.267-57.944-56.894-59.156l-0.11-0.003zM512 896c-247.424 0-448-200.576-448-448s200.576-448 448-448c247.424 0 448 200.576 448 448v0c0 247.424-200.576 448-448 448v0zM512 64c-212.077 0-384 171.923-384 384s171.923 384 384 384c212.077 0 384-171.923 384-384v0c0-212.077-171.923-384-384-384v0z" />
<glyph unicode="&#xe999;" glyph-name="price-yen-filled" data-tags="price-yen-filled" d="M512 896c-247.424 0-448-200.576-448-448s200.576-448 448-448c247.424 0 448 200.576 448 448v0c0 247.424-200.576 448-448 448v0zM704 512v-64h-151.040l-8.96-13.12v-50.88h160v-64h-160v-128h-64v128h-160v64h160v50.88l-8.96 13.12h-151.040v64h107.84l-107.84 160h77.12l114.88-170.24 114.88 170.24h77.12l-107.84-160z" />
</font>
</defs>
</svg>
